BitTorrentTracker PerecTracker.org
BitTorrentTracker PerecTracker.org
    
Регистрация  ·  Вход
 
 · 
Забыли пароль?

  • Беги! / Серии: 1-4 из 4 (Андрей Волгин) [2016, боевик, детектив, HDTV (1080i)]

    Ответить на тему
     
    Автор Сообщение

    rechyn

    Создавать темы 09-Сен-2016 10:00

           

    [Цитировать]

    Беги!--Год выпуска: 2016
    Производство: ООО «Студия Грин Фильм», ООО «ПРИОР Продакшн»
    Жанр: боевик, детектив
    Продолжительность: 00:45:00
    Субтитры: нет-Режиссёр: Андрей Волгин-В ролях:
    Павел Прилучный, Денис Шведов, Иван Жидков, Екатерина Редникова, Светлана Смирнова-Марцинкевич, Михаил Трясоруков,
    Вячеслав Гумеров, Сергей Колос, Александр Кудренко, Татьяна Казючиц, Владимир Крылов, Сергей Харитонов-Описание:
    Капитан полиции Николай Маркин едет в расположение колонии строгого режима где-то в тайге. У него секретное задание. Но добраться до колонии он не успевает: в трех километрах от въезда в зону Николай становится свидетелем побега заключенного, Дмитрия Воронкова. Ни секунды не колеблясь, офицер бросается в лес в погоню за преступником. В отличие от заключенного, который явно готовился к побегу, у Николая нет ни карты, ни продуктов, ни оружия. Тем не менее, он упорно следует за беглецом.
    Два разных человека — заключенный и служитель закона — по воле судьбы переплетают свои жизни воедино. В течение нескольких дней произойдет масса невероятных событий, полностью переворачивающих отношение зрителя к происходящему на экране. В лучших традициях «Подозрительных лиц» ("Usual suspects») до самого конца истории мы не будем знать, кто же главный злодей и будем подозревать по очереди всех! Но какая же история без любви? Два друга, ставшие непримиримыми врагами, и красивая женщина между ними… Этот «классический любовный треугольник» обернется не одним сюрпризом! Массу интересных и порой шокирующих открытий предстоит сделать зрителю в ходе нашей истории: кто «подставил» и засадил Воронкова за решетку, почему преследователи пытаются убить капитана Маркина, что прячет «беглец» Дмитрий Воронков, какой правды он ищет… и почему непримиримые враги «спина-к-спине» защищают друг друга?-Все раздачи сериала-Возраст: 16+-Качество: HDTV (1080i)
    Формат: TS
    Видео кодек: AVC
    Аудио кодек: MP2

    Видео: AVC, 1920 х 1080 (16:9), 25,000 кадр/сек, 7 859 Кбит/сек, 0.152 bit/pixel
    Аудио: MP2, 48000 Hz, 192 Kbps, 2 канала
    -

    MediaInfo

    General
    ID : 1 (0x1)
    Complete name : D:\Раздачи\Беги! (1-4 серии из 4) HDTV (1080i)\Begi.(01.seriya.iz.04).2016.HDTV.(1080i).Nikolspup.ts
    Format : MPEG-TS
    File size : 2.75 GiB
    Duration : 46mn 25s
    Overall bit rate mode : Variable
    Overall bit rate : 8 472 Kbps
    Video
    ID : 67 (0x43)
    Menu ID : 1 (0x1)
    Format : AVC
    Format/Info : Advanced Video Codec
    Format profile : Main@L4
    Format settings, CABAC : Yes
    Format settings, ReFrames : 2 frames
    Codec ID : 27
    Duration : 46mn 25s
    Bit rate : 7 859 Kbps
    Width : 1 920 pixels
    Height : 1 080 pixels
    Display aspect ratio : 16:9
    Frame rate : 25.000 fps
    Color space : YUV
    Chroma subsampling : 4:2:0
    Bit depth : 8 bits
    Scan type : MBAFF
    Scan type, store method : Interleaved fields
    Scan order : Top Field First
    Bits/(Pixel*Frame) : 0.152
    Stream size : 2.55 GiB (93%)
    Color range : Limited
    Color primaries : BT.709
    Transfer characteristics : BT.709
    Matrix coefficients : BT.709
    Audio
    ID : 902 (0x386)
    Menu ID : 1 (0x1)
    Format : MPEG Audio
    Format version : Version 1
    Format profile : Layer 2
    Codec ID : 3
    Duration : 46mn 25s
    Bit rate mode : Constant
    Bit rate : 192 Kbps
    Channel(s) : 2 channels
    Sampling rate : 48.0 KHz
    Compression mode : Lossy
    Stream size : 63.7 MiB (2%)
    Language : Russian
    -

    Скриншоты сериала


    --
    Скачать .torrent

    Скачать торрент-файл бесплатно и на максимальной скорости!

    Как скачивать? · Что такое торрент? · Рейтинг и ограничения

    !ВНИМАНИЕ!
    Сайт не распространяет и не хранит электронные версии произведений, а занимается лишь лишь предоставлением доступа к создаваемому пользователями каталогу ссылок на торрент-файлы, которые содержат только списки хеш-сумм, убедительная просьба с жалобами обращаться напрямую к пользователю. Файлы для обмена на трекере предоставлены пользователями сайта, и администрация не несёт ответственности за их содержание. Просьба не заливать файлы, защищенные авторскими правами, а также файлы нелегального содержания!


    _________________
    [Профиль] [ЛС]
    Показать сообщения:    
    Ответить на тему

    Текущее время: Сегодня, в 02:39

    Часовой пояс: GMT + 2



    Вы не можете начинать темы
    Вы не можете отвечать на сообщения
    Вы не можете редактировать свои сообщения
    Вы не можете удалять свои сообщения
    Вы не можете голосовать в опросах
    Вы не можете прикреплять файлы к сообщениям
    Вы не можете скачивать файлы