BitTorrentTracker PerecTracker.org
BitTorrentTracker PerecTracker.org
    
Регистрация  ·  Вход
 
 · 
Забыли пароль?

  • Два отца и два сына / сезон: 3 / Серии: 1-20 из 20 (Радда Новикова) [2016, Комедия, WEBRip]

    Ответить на тему
     
    Автор Сообщение

    rechyn

    Создавать темы 09-Сен-2016 09:58

           

    [Цитировать]

    Два отца и два сынаГод выпуска: 2016
    Производство: Россия, «Yellow, Black and White»
    Жанр: Комедия
    Продолжительность: 00:25:00
    Субтитры: нет
    Режиссёр: Радда Новикова
    В ролях:
    Дмитрий Нагиев, Максим Студеновский, Илья Костюков, Виктория Лукина, Анна Якунина, Галина Петрова, Виктория Чернышёва, Алика Смехова, Ангелина Притуманова, Сергей Стёпин, Борис Эстрин, Мария Беккер, Наталья Сильвановская, Светлана Гера, Николай Сахаров, Михаил Токмовцев, Елена Мироненко, Юлия Долготович, Максим Артамонов, Екатерина Мадалинская, Валерия Жидкова, Наталья Унгард, Сергей Баталов, Дмитрий Высоцкий, Дарья Любшина-Луран, Максим Важов, Кирилл Дубровицкий, Сергей Волков (III), Алена Ныркова, Сергей Неудачин, Юлия Подозёрова, Ксения Кастор, Тимур Ефременков, Денис Клявер, Маргарита Суханкина, Григорий Зельцер, Валерия Каленникова, Алёна Спивак, Нериюс Манкус, Марина Вайнбранд, Юрий Тузов, Наталия Гаранина, Юлия Борисова (III), Марина Кондратьева (II), Юрий Брешин, Дмитрий Сухомлинов, Юлия Абрамова, Людмила Кожевникова, Андрей Харыбин, Дарья Чаруша, Христина Сорокина, Кристина Юнаева, Владимир Плахтий, Роман Калькаев, Максим Ратинер, Оксана Мысина, Кирилл Андреев, Данила Якушев, Георгий Громов, Светлана Степанковская, Руслан Спояло, Анастасия Павленко, Татьяна Корабельщикова, Кристина Корубко, Иннокентий Тарабара, Татьяна Храмова (II), Ксения Теплова, Кирилл Мугайских, Юлия Франц, Артем Манукян
    Описание: В новом сезоне, главный герой Павел Гуров узнает о существовании ещё одного взрослого сына, перевоплотится в женщину, получит «Оскар» и даже споёт шансон. Новый имидж, переезд в загородный дом и неожиданное пополнение в семействе – в жизни актёра Павла Гурова наступила пора серьезных перемен. Но если Витя совсем не похож на родителя, то предприимчивый Дима унаследовал от отца всё самое лучшее. Пока парни бьются за звание «сына года», Павел пытается вернуть свою былую популярность. Проблем добавляет и новая соседка Инга – телеведущая, которая ничуть не уступает актёру в умении шутить и спорить.
    Все раздачи сериала
    Сэмпл
    Качество: WEBRip
    Формат: AVI
    Видео кодек: XviD
    Аудио кодек: AC3
    Видео: 720x400 (1.80:1), 25 fps, XviD build 73 ~1520 kbps avg, 0.21 bit/pixel
    Аудио: 48 kHz, AC3 Dolby Digital, 2/0 (L,R) ch, ~192.00 kbps avg

    MI

    General
    Complete name : X:\раздачи\Dva.otca.i.dva.syna.2016.WEB-DLRip..Files-x.Dva.otca.i.dva.syna.2016.WEB-DLRip..Files-x.avi
    Format : AVI
    Format/Info : Audio Video Interleave
    File size : 299 MiB
    Duration : 24mn 17s
    Overall bit rate : 1 722 Kbps
    Writing application : VirtualDubMod 1.5.10.3 | www.virtualdub-fr.org || (build 2550/release)
    Writing library : VirtualDubMod build 2550/release
    Video
    ID : 0
    Format : MPEG-4 Visual
    Format profile : Advanced Simple@L5
    Format settings, BVOP : 1
    Format settings, QPel : No
    Format settings, GMC : No warppoints
    Format settings, Matrix : Custom
    Codec ID : XVID
    Codec ID/Hint : XviD
    Duration : 24mn 17s
    Bit rate : 1 521 Kbps
    Width : 720 pixels
    Height : 400 pixels
    Display aspect ratio : 16:9
    Frame rate : 25.000 fps
    Color space : YUV
    Chroma subsampling : 4:2:0
    Bit depth : 8 bits
    Scan type : Progressive
    Compression mode : Lossy
    Bits/(Pixel*Frame) : 0.211
    Stream size : 264 MiB (88%)
    Writing library : XviD 73
    Audio
    ID : 1
    Format : AC-3
    Format/Info : Audio Coding 3
    Mode extension : CM (complete main)
    Format settings, Endianness : Big
    Codec ID : 2000
    Duration : 24mn 17s
    Bit rate mode : Constant
    Bit rate : 192 Kbps
    Channel(s) : 2 channels
    Channel positions : Front: L R
    Sampling rate : 48.0 KHz
    Frame rate : 31.250 fps (1536 spf)
    Compression mode : Lossy
    Stream size : 33.4 MiB (11%)
    Alignment : Split accross interleaves
    Interleave, duration : 40 ms (1.00 video frame)
    Interleave, preload duratio : 500 ms

    Скриншоты

    Скачать .torrent

    Скачать торрент-файл бесплатно и на максимальной скорости!

    Как скачивать? · Что такое торрент? · Рейтинг и ограничения

    !ВНИМАНИЕ!
    Сайт не распространяет и не хранит электронные версии произведений, а занимается лишь лишь предоставлением доступа к создаваемому пользователями каталогу ссылок на торрент-файлы, которые содержат только списки хеш-сумм, убедительная просьба с жалобами обращаться напрямую к пользователю. Файлы для обмена на трекере предоставлены пользователями сайта, и администрация не несёт ответственности за их содержание. Просьба не заливать файлы, защищенные авторскими правами, а также файлы нелегального содержания!


    _________________
    [Профиль] [ЛС]
    Показать сообщения:    
    Ответить на тему

    Текущее время: Сегодня, в 11:56

    Часовой пояс: GMT + 2



    Вы не можете начинать темы
    Вы не можете отвечать на сообщения
    Вы не можете редактировать свои сообщения
    Вы не можете удалять свои сообщения
    Вы не можете голосовать в опросах
    Вы не можете прикреплять файлы к сообщениям
    Вы не можете скачивать файлы