BitTorrentTracker PerecTracker.org
BitTorrentTracker PerecTracker.org
    
Регистрация  ·  Вход
 
 · 
Забыли пароль?

  • Сны (Александр Бородянский, Карен Шахназаров) [1993, комедия, фантастика, BDRip-AVC]

    Ответить на тему
     
    Автор Сообщение

    Flirldrerve

    Создавать темы 07-Сен-2016 22:30

           

    [Цитировать]

    Сны
    Жанр: комедия
    Год выпуска: 1993
    Продолжительность: 01:18:53
    Режиссёр: Александр Бородянский, Карен Шахназаров
    В ролях: Олег Басилашвили, Амалия Мордвинова, Армен Джигарханян, Аркадий Идес, Пётр Меркурьев, Валерий Носик, Алексей Жарков, Юрий Шерстнев, Андрей Ростоцкий, Андрей Вертоградов...
    Описание: Аристократка девятнадцатого века, Графиня Призорова, живет в Москве. Она богата, молода, но с некоторых пор ей стали сниться очень странные сны. Будто она не графиня, а уборщица Маша Степанова, работает в Москве, в 1993 году, в столовой N 9. Она лимитчица из глубинки и живет в общежитии. Не найдя объяснений столь странным сновидениям, графиня обращается к доктору..

    Сэмпл: http://multi-up.com/1117064
    Качество видео: BDRip-AVC
    Формат видео: MKV
    Видео: 768x560 at 23.976 fps, MPEG-4 AVC, ~1242 kbps
    Аудио: 48 kHz, AC3, 1/0 (C), ~96 kbps

    MediaInfo

    Format : Matroska
    Format version : Version 2
    File size : 750 MiB
    Duration : 1h 18mn
    Overall bit rate : 1 329 Kbps
    Movie name : Сны (1993)
    Encoded date : UTC 2016-09-07 16:01:20
    Writing application : mkvmerge v3.4.0 ('Rapunzel') built on May 15 2010 09:38:20
    Writing library : libebml v0.8.0 + libmatroska v0.9.0
    Video
    ID : 1
    Format : AVC
    Format/Info : Advanced Video Codec
    Format profile : High@L4.1
    Format settings, CABAC : Yes
    Format settings, ReFrames : 11 frames
    Codec ID : V_MPEG4/ISO/AVC
    Duration : 1h 18mn
    Bit rate : 1 242 Kbps
    Width : 768 pixels
    Height : 560 pixels
    Display aspect ratio : 1.371
    Frame rate mode : Constant
    Frame rate : 23.976 fps
    Color space : YUV
    Chroma subsampling : 4:2:0
    Bit depth : 8 bits
    Scan type : Progressive
    Bits/(Pixel*Frame) : 0.120
    Stream size : 681 MiB (91%)
    Title : MPEG-4 (AVC)
    Writing library : x264 core 148 r2705 3f5ed56
    Encoding settings : cabac=1 / ref=11 / deblock=1:-2:-1 / analyse=0x3:0x133 / me=umh / subme=9 / psy=1 / psy_rd=1.00:0.10 / mixed_ref=1 / me_range=32 / chroma_me=1 / trellis=2 / 8x8dct=1 / cqm=0 / deadzone=21,11 / fast_pskip=0 / chroma_qp_offset=-3 / threads=3 / lookahead_threads=1 / sliced_threads=0 / nr=0 / decimate=1 / interlaced=0 / bluray_compat=0 / constrained_intra=0 / bframes=9 / b_pyramid=2 / b_adapt=2 / b_bias=0 / direct=3 / weightb=1 / open_gop=0 / weightp=2 / keyint=240 / keyint_min=23 / scenecut=40 / intra_refresh=0 / rc_lookahead=80 / rc=2pass / mbtree=1 / bitrate=1242 / ratetol=1.0 / qcomp=0.60 / qpmin=0 / qpmax=69 / qpstep=4 / cplxblur=20.0 / qblur=0.5 / ip_ratio=1.35 / aq=1:1.00
    Language : Russian
    Default : Yes
    Forced : No
    Audio
    ID : 2
    Format : AC-3
    Format/Info : Audio Coding 3
    Mode extension : CM (complete main)
    Format settings, Endianness : Big
    Codec ID : A_AC3
    Duration : 1h 18mn
    Bit rate mode : Constant
    Bit rate : 96.0 Kbps
    Channel(s) : 1 channel
    Channel positions : Front: C
    Sampling rate : 48.0 KHz
    Bit depth : 16 bits
    Compression mode : Lossy
    Stream size : 54.2 MiB (7%)
    Title : AC3 1.0 @ 96 kbps
    Language : Russian
    Default : Yes
    Forced : No
    avs [info]: 768x560p 1:1 @ 2500000/104271 fps (cfr)
    x264 [info]: using SAR=1/1
    x264 [info]: using cpu capabilities: MMX2 SSE2Fast SSSE3 Cache64
    x264 [info]: profile High, level 4.1
    x264 [info]: frame I:617 Avg QP:16.08 size: 75504
    x264 [info]: frame P:20406 Avg QP:18.81 size: 20476
    x264 [info]: frame B:91476 Avg QP:21.97 size: 2887
    x264 [info]: consecutive B-frames: 0.9% 0.8% 3.6% 6.9% 10.7% 66.2% 5.6% 1.8% 3.2% 0.5%
    x264 [info]: mb I I16..4: 7.5% 66.6% 25.9%
    x264 [info]: mb P I16..4: 0.3% 3.1% 0.6% P16..4: 46.0% 23.4% 21.2% 0.9% 0.4% skip: 4.0%
    x264 [info]: mb B I16..4: 0.0% 0.1% 0.0% B16..8: 42.2% 5.9% 1.5% direct: 1.9% skip:48.3% L0:44.2% L1:48.9% BI: 7.0%
    x264 [info]: 8x8 transform intra:71.8% inter:58.5%
    x264 [info]: direct mvs spatial:98.9% temporal:1.1%
    x264 [info]: coded y,uvDC,uvAC intra: 89.3% 88.3% 69.2% inter: 14.1% 17.4% 3.5%
    x264 [info]: i16 v,h,dc,p: 37% 15% 13% 36%
    x264 [info]: i8 v,h,dc,ddl,ddr,vr,hd,vl,hu: 14% 9% 7% 9% 13% 13% 12% 12% 11%
    x264 [info]: i4 v,h,dc,ddl,ddr,vr,hd,vl,hu: 13% 8% 4% 9% 14% 14% 12% 12% 12%
    x264 [info]: i8c dc,h,v,p: 42% 20% 23% 14%
    x264 [info]: Weighted P-Frames: Y:2.1% UV:0.6%
    x264 [info]: ref P L0: 42.6% 12.6% 17.8% 5.7% 5.8% 3.7% 4.2% 1.8% 2.2% 1.6% 2.0% 0.0% 0.0%
    x264 [info]: ref B L0: 73.1% 11.5% 5.7% 2.7% 2.0% 1.8% 1.4% 0.9% 0.6% 0.3%
    x264 [info]: ref B L1: 93.6% 6.4%
    x264 [info]: kb/s:1242.06

    Скриншот c названием фильма

    Скриншоты

    Скачать .torrent

    Скачать торрент-файл бесплатно и на максимальной скорости!

    Как скачивать? · Что такое торрент? · Рейтинг и ограничения

    !ВНИМАНИЕ!
    Сайт не распространяет и не хранит электронные версии произведений, а занимается лишь лишь предоставлением доступа к создаваемому пользователями каталогу ссылок на торрент-файлы, которые содержат только списки хеш-сумм, убедительная просьба с жалобами обращаться напрямую к пользователю. Файлы для обмена на трекере предоставлены пользователями сайта, и администрация не несёт ответственности за их содержание. Просьба не заливать файлы, защищенные авторскими правами, а также файлы нелегального содержания!


    _________________
    [Профиль] [ЛС]
    Показать сообщения:    
    Ответить на тему

    Текущее время: Сегодня, в 11:55

    Часовой пояс: GMT + 2



    Вы не можете начинать темы
    Вы не можете отвечать на сообщения
    Вы не можете редактировать свои сообщения
    Вы не можете удалять свои сообщения
    Вы не можете голосовать в опросах
    Вы не можете прикреплять файлы к сообщениям
    Вы не можете скачивать файлы