BitTorrentTracker PerecTracker.org
BitTorrentTracker PerecTracker.org
    
Регистрация  ·  Вход
 
 · 
Забыли пароль?

  • Шоколад / Chocolat (Рошди Зем / Roschdy Zem) [2016, Франция, драма, HDRip] Dub (iTunes)

    Ответить на тему
     
    Автор Сообщение

    rechyn

    Создавать темы 07-Сен-2016 22:30

           

    [Цитировать]

    Шоколад / Chocolat
    Страна: США
    Жанр: Драма
    Год выпуска: 2016
    Продолжительность: 01:59:05
    Перевод: Профессиональный (полное дублирование) | iTunes
    Cубтитры: нет
    Режиссер: Рошди Зем / Roschdy Zem
    В ролях: Омар Си (Rafael Padilla dit Chocolat), Джеймс Тьерре (George Footit dit Footit), Клотильда Эсме (Marie Hecquet), Оливье Гурме (Joseph Oller), Фредерик Пьеро (Théodore Delvaux), Ноэми Львовски (Yvonne Delvaux), Элис де Ланкесэ (Camille), Алекс Дека (Victor), Оливье Рабурден (Firmin Gemier), Тибо де Монталембер (Jules Moy), Элена Субейран (Régina Badet), Ксавье Бовуа (Jacques Potin)
    Описание: Это история первого во Франции чернокожего клоуна, выступавшего в тандеме с белым клоуном, вышедшим было в тираж, а с появлением нового партнера вернувшим себе былую славу. Их номера были чрезвычайно популярны в конце XIX века, но интерес к ним был востребован преимущественно из-за того, что белый клоун издевался над чернокожим.

    Сэмпл
    Релиз от Megapeer
    Качество видео: HDRip (Исх. Sh0k0l4d.2016.D.BDRip.720p)
    Формат видео: AVI
    Видео: 624x336 (1.86:1), 24 fps, XviD build 73 ~743 kbps avg, 0.17 bit/pixel
    Аудио: 48.0 kHz, MP3, 2/0 ch, 128 kbps

    MediaInfo

    ОбщееПолное имя : D:\Chocolat.2016.HDRip.745MB.MegaPeer.aviФормат : AVIФормат/Информация : Audio Video InterleaveРазмер файла : 747 МбайтПродолжительность : 1 ч. 59 м.Общий поток : 877 Кбит/сек
    ВидеоИдентификатор : 0Формат : MPEG-4 VisualПрофиль формата : Advanced Simple@L5Параметр BVOP формата : 1Параметр QPel формата : НетПараметр GMC формата : Без точки переходаПараметр матрицы формата : ВыборочнаяИдентификатор кодека : XVIDИдентификатор кодека/Подсказка : XviDПродолжительность : 1 ч. 59 м.Битрейт : 743 Кбит/секШирина : 624 пикселяВысота : 336 пикселейСоотношение сторон : 1,85:1Частота кадров : 24,000 кадра/секЦветовое пространство : YUVСубдискретизация насыщенности : 4:2:0Битовая глубина : 8 битТип развёртки : ПрогрессивнаяМетод сжатия : С потерямиБит/(Пиксели*Кадры) : 0.148Размер потока : 633 Мбайт (85%)Библиотека кодирования : XviD 73
    АудиоИдентификатор : 1Формат : MPEG AudioВерсия формата : Version 1Профиль формата : Layer 3Режим : Joint stereoРасширение режима : MS StereoИдентификатор кодека : 55Идентификатор кодека/Подсказка : MP3Продолжительность : 1 ч. 59 м.Вид битрейта : ПостоянныйБитрейт : 128 Кбит/секКаналы : 2 каналаЧастота : 48,0 КГцМетод сжатия : С потерямиРазмер потока : 109 Мбайт (15%)Выравнивание : Соединение по промежуткамПродолжительность промежутка : 167 мс. (4,00 видеокадра)Время предзагрузки промежутка : 216 мс.Заголовок : iTunesБиблиотека кодирования : LAME3.99rНастройки программы : -m j -V 4 -q 2 -lowpass 17 -b 128

    Скриншоты

    Скачать .torrent

    Скачать торрент-файл бесплатно и на максимальной скорости!

    Как скачивать? · Что такое торрент? · Рейтинг и ограничения

    !ВНИМАНИЕ!
    Сайт не распространяет и не хранит электронные версии произведений, а занимается лишь лишь предоставлением доступа к создаваемому пользователями каталогу ссылок на торрент-файлы, которые содержат только списки хеш-сумм, убедительная просьба с жалобами обращаться напрямую к пользователю. Файлы для обмена на трекере предоставлены пользователями сайта, и администрация не несёт ответственности за их содержание. Просьба не заливать файлы, защищенные авторскими правами, а также файлы нелегального содержания!


    _________________
    [Профиль] [ЛС]
    Показать сообщения:    
    Ответить на тему

    Текущее время: Сегодня, в 16:34

    Часовой пояс: GMT + 2



    Вы не можете начинать темы
    Вы не можете отвечать на сообщения
    Вы не можете редактировать свои сообщения
    Вы не можете удалять свои сообщения
    Вы не можете голосовать в опросах
    Вы не можете прикреплять файлы к сообщениям
    Вы не можете скачивать файлы