Register  ·  Log in
Forgot password?

  • Шоколад / Chocolat (Рошди Зем / Roschdy Zem) [2016, Франция, драма, HDRip] Dub (iTunes)

    Reply to topic
    Author Message


    Post 07-Sep-2016 23:30



    Шоколад / Chocolat
    Страна: Франция
    Жанр: драма
    Год выпуска: 2016
    Продолжительность: 01:59:05
    Перевод: Профессиональный (дублированный) iTunes
    Cубтитры: нет
    Оригинальная аудиодорожка: нет-Режиссер: Рошди Зем / Roschdy Zem-В ролях: Омар Си (Rafael Padilla dit Chocolat), Джеймс Тьерре (George Footit dit Footit), Клотильда Эсме (Marie Hecquet), Оливье Гурме (Joseph Oller), Фредерик Пьеро (Théodore Delvaux), Ноэми Львовски (Yvonne Delvaux), Элис де Ланкесэ (Camille), Алекс Дека (Victor), Оливье Рабурден (Firmin Gemier), Тибо де Монталембер (Jules Moy), Элена Субейран (Régina Badet), Ксавье Бовуа (Jacques Potin)-Описание: Это история первого во Франции чернокожего клоуна, выступавшего в тандеме с белым клоуном, вышедшим было в тираж, а с появлением нового партнера вернувшим себе былую славу. Их номера были чрезвычайно популярны в конце XIX века, но интерес к ним был востребован преимущественно из-за того, что белый клоун издевался над чернокожим.--Качество видео: HDRip
    Формат видео: AVI
    Видео: 720x384 (1.88:1), 24.000 fps, XviD build 73 ~1368 kbps avg, 0.21 bit/pixel
    Аудио: 48 kHz, AC3 Dolby Digital, 3/2 (L,C,R,l,r) + LFE ch, ~384 kbps-
    • Скачать сэмпл-


    Format                      : AVI
    Format/Info                 : Audio Video Interleave
    File size                   : 1.47 GiB
    Duration                    : 1 h 59 min
    Overall bit rate            : 1 762 kb/s
    Writing application         : VirtualDubMod | || (build 2550/release)
    Writing library             : VirtualDubMod build 2550/release
    ID                          : 0
    Format                      : MPEG-4 Visual
    Format profile              : Advanced Simple@L5
    Format settings, BVOP       : 1
    Format settings, QPel       : No
    Format settings, GMC        : No warppoints
    Format settings, Matrix     : Custom
    Codec ID                    : XVID
    Codec ID/Hint               : XviD
    Duration                    : 1 h 59 min
    Bit rate                    : 1 369 kb/s
    Width                       : 720 pixels
    Height                      : 384 pixels
    Display aspect ratio        : 1.85:1
    Frame rate                  : 24.000 FPS
    Color space                 : YUV
    Chroma subsampling          : 4:2:0
    Bit depth                   : 8 bits
    Scan type                   : Progressive
    Compression mode            : Lossy
    Bits/(Pixel*Frame)          : 0.206
    Stream size                 : 1.14 GiB (78%)
    Writing library             : XviD 73
    ID                          : 1
    Format                      : AC-3
    Format/Info                 : Audio Coding 3
    Mode extension              : CM (complete main)
    Format settings, Endianness : Big
    Codec ID                    : 2000
    Duration                    : 1 h 59 min
    Bit rate mode               : Constant
    Bit rate                    : 384 kb/s
    Channel(s)                  : 6 channels
    Channel positions           : Front: L C R, Side: L R, LFE
    Sampling rate               : 48.0 kHz
    Frame rate                  : 31.250 FPS (1536 spf)
    Compression mode            : Lossy
    Stream size                 : 327 MiB (22%)
    Alignment                   : Split accross interleaves
    Interleave, duration        : 42  ms (1.00 video frame)
    Interleave, preload duratio : 500  ms


    Download .torrent

    Download free and at maximum speed!

    How to Download? · What is a torrent? · Ratings and Limitations

    The site does not extend and does not store electronic(digital) versions of products, and only gives access to a reference catalogue created by users on torrent-files which contain only lists of the hash-sums, the earnest entreaty, with complaints(abuse) to access directly to the user. Files for an exchange on tracker are given by users of a site, and the administration does not bear the responsibility for their maintenance. The request to not fill in the files protected by copyrights, and also files of the illegal maintenance!

    [Profile] [PM]
    Display posts from previous:    
    Reply to topic

    The time now is: Today 17:25

    All times are GMT + 3 Hours

    You cannot post new topics in this forum
    You cannot reply to topics in this forum
    You cannot edit your posts in this forum
    You cannot delete your posts in this forum
    You cannot vote in polls in this forum
    You cannot attach files in this forum
    You cannot download files in this forum