Register  ·  Log in
Forgot password?

  • Инцидент / El Incidente (Исаак Эзбан / Isaac Ezban) [2014, Мексика, Фантастика, триллер, WEB-DLRip] MVO (iTunes)

    Reply to topic
    Author Message


    Post 07-Sep-2016 23:30



    Инцидент / El Incidente«The only way out is to keep going»Страна: Мексика
    Жанр: фантастика, триллер
    Год выпуска: 2014
    Продолжительность: 01:40:50
    Перевод: Профессиональный (многоголосый закадровый)
    Cубтитры: нет
    Оригинальная аудиодорожка: нет
    Режиссер: Исаак Эзбан / Isaac Ezban
    В ролях: Рауль Мендес, Умберто Бусто, Эрнан Мендоса, Найлеа Норвинд, Магда Бругенхайм, Эрик Тринидад Камачо, Энрике Мендоса, Маркос Морено
    Описание: Семья, отправляющаяся к морю, многократно проезжает один и тот же дорожный указатель. Случайные предметы материализуются там, где их только что не было. Люди, застрявшие в пространственных петлях, по-разному справляются с ужасом осознания, что реальность сломалась. Отправной точкой этого страшного парадокса стал загадочный взрыв, на разгадку тайны которого у героев есть вся жизнь...
    Качество видео: WEB-DLRip
    Исходник: Incident.2014.P.WEBDL.720p kinozal
    Формат видео: AVI
    Видео: 704x272 (2.59:1), 23.976 fps, XviD build 65 ~1679 kbps avg, 0.37 bit/pixel
    Аудио RUS: 48 kHz, AC3 Dolby Digital, 3/2 (L,C,R,l,r) + LFE ch, ~384 kbps
    Rip by Ториял


    Format : AVI
    Format/Info : Audio Video Interleave
    File size : 1.46 GiB
    Duration : 1h 40mn
    Overall bit rate : 2 073 Kbps
    Writing application : VirtualDubMod | || (build 2550/release)
    Writing library : VirtualDubMod build 2550/release
    ID : 0
    Format : MPEG-4 Visual
    Format profile : Advanced Simple@L5
    Format settings, BVOP : 1
    Format settings, QPel : No
    Format settings, GMC : No warppoints
    Format settings, Matrix : Custom
    Codec ID : XVID
    Codec ID/Hint : XviD
    Duration : 1h 40mn
    Bit rate : 1 680 Kbps
    Width : 704 pixels
    Height : 272 pixels
    Display aspect ratio : 2.588
    Frame rate : 23.976 (23976/1000) fps
    Color space : YUV
    Chroma subsampling : 4:2:0
    Bit depth : 8 bits
    Scan type : Progressive
    Compression mode : Lossy
    Bits/(Pixel*Frame) : 0.366
    Stream size : 1.18 GiB (81%)
    Writing library : XviD 65
    ID : 1
    Format : AC-3
    Format/Info : Audio Coding 3
    Mode extension : CM (complete main)
    Format settings, Endianness : Big
    Codec ID : 2000
    Duration : 1h 40mn
    Bit rate mode : Constant
    Bit rate : 384 Kbps
    Channel(s) : 6 channels
    Channel positions : Front: L C R, Side: L R, LFE
    Sampling rate : 48.0 KHz
    Frame rate : 31.250 fps (1536 spf)
    Compression mode : Lossy
    Stream size : 277 MiB (19%)
    Alignment : Split accross interleaves
    Interleave, duration : 42 ms (1.00 video frame)
    Interleave, preload duratio : 500 ms


    Download .torrent

    Download free and at maximum speed!

    How to Download? · What is a torrent? · Ratings and Limitations

    The site does not extend and does not store electronic(digital) versions of products, and only gives access to a reference catalogue created by users on torrent-files which contain only lists of the hash-sums, the earnest entreaty, with complaints(abuse) to access directly to the user. Files for an exchange on tracker are given by users of a site, and the administration does not bear the responsibility for their maintenance. The request to not fill in the files protected by copyrights, and also files of the illegal maintenance!

    [Profile] [PM]
    Display posts from previous:    
    Reply to topic

    The time now is: Today 18:49

    All times are GMT + 3 Hours

    You cannot post new topics in this forum
    You cannot reply to topics in this forum
    You cannot edit your posts in this forum
    You cannot delete your posts in this forum
    You cannot vote in polls in this forum
    You cannot attach files in this forum
    You cannot download files in this forum