BitTorrentTracker PerecTracker.org
BitTorrentTracker PerecTracker.org
    
Регистрация  ·  Вход
 
 · 
Забыли пароль?

  • Инцидент / El Incidente (Исаак Эзбан / Isaac Ezban) [2014, Мексика, Фантастика, триллер, WEB-DLRip] MVO (iTunes)

    Ответить на тему
     
    Автор Сообщение

    Light

    Создавать темы 07-Сен-2016 22:30

           

    [Цитировать]

    Инцидент / El Incidente«The only way out is to keep going»Страна: Мексика
    Жанр: фантастика, триллер
    Год выпуска: 2014
    Продолжительность: 01:40:50
    Перевод: Профессиональный (многоголосый закадровый)
    Cубтитры: нет
    Оригинальная аудиодорожка: нет
    Режиссер: Исаак Эзбан / Isaac Ezban
    В ролях: Рауль Мендес, Умберто Бусто, Эрнан Мендоса, Найлеа Норвинд, Магда Бругенхайм, Эрик Тринидад Камачо, Энрике Мендоса, Маркос Морено
    Описание: Семья, отправляющаяся к морю, многократно проезжает один и тот же дорожный указатель. Случайные предметы материализуются там, где их только что не было. Люди, застрявшие в пространственных петлях, по-разному справляются с ужасом осознания, что реальность сломалась. Отправной точкой этого страшного парадокса стал загадочный взрыв, на разгадку тайны которого у героев есть вся жизнь...
    Сэмпл: http://multi-up.com/1116626
    Качество видео: WEB-DLRip
    Исходник: Incident.2014.P.WEBDL.720p kinozal
    Формат видео: AVI
    Видео: 704x272 (2.59:1), 23.976 fps, XviD build 65 ~1679 kbps avg, 0.37 bit/pixel
    Аудио RUS: 48 kHz, AC3 Dolby Digital, 3/2 (L,C,R,l,r) + LFE ch, ~384 kbps
    Rip by Ториял

    MediaInfo

    Format : AVI
    Format/Info : Audio Video Interleave
    File size : 1.46 GiB
    Duration : 1h 40mn
    Overall bit rate : 2 073 Kbps
    Writing application : VirtualDubMod 1.5.10.3 | www.virtualdub-fr.org || (build 2550/release)
    Writing library : VirtualDubMod build 2550/release
    Video
    ID : 0
    Format : MPEG-4 Visual
    Format profile : Advanced Simple@L5
    Format settings, BVOP : 1
    Format settings, QPel : No
    Format settings, GMC : No warppoints
    Format settings, Matrix : Custom
    Codec ID : XVID
    Codec ID/Hint : XviD
    Duration : 1h 40mn
    Bit rate : 1 680 Kbps
    Width : 704 pixels
    Height : 272 pixels
    Display aspect ratio : 2.588
    Frame rate : 23.976 (23976/1000) fps
    Color space : YUV
    Chroma subsampling : 4:2:0
    Bit depth : 8 bits
    Scan type : Progressive
    Compression mode : Lossy
    Bits/(Pixel*Frame) : 0.366
    Stream size : 1.18 GiB (81%)
    Writing library : XviD 65
    Audio
    ID : 1
    Format : AC-3
    Format/Info : Audio Coding 3
    Mode extension : CM (complete main)
    Format settings, Endianness : Big
    Codec ID : 2000
    Duration : 1h 40mn
    Bit rate mode : Constant
    Bit rate : 384 Kbps
    Channel(s) : 6 channels
    Channel positions : Front: L C R, Side: L R, LFE
    Sampling rate : 48.0 KHz
    Frame rate : 31.250 fps (1536 spf)
    Compression mode : Lossy
    Stream size : 277 MiB (19%)
    Alignment : Split accross interleaves
    Interleave, duration : 42 ms (1.00 video frame)
    Interleave, preload duratio : 500 ms

    Скриншоты

    Скачать .torrent

    Скачать торрент-файл бесплатно и на максимальной скорости!

    Как скачивать? · Что такое торрент? · Рейтинг и ограничения

    !ВНИМАНИЕ!
    Сайт не распространяет и не хранит электронные версии произведений, а занимается лишь лишь предоставлением доступа к создаваемому пользователями каталогу ссылок на торрент-файлы, которые содержат только списки хеш-сумм, убедительная просьба с жалобами обращаться напрямую к пользователю. Файлы для обмена на трекере предоставлены пользователями сайта, и администрация не несёт ответственности за их содержание. Просьба не заливать файлы, защищенные авторскими правами, а также файлы нелегального содержания!


    _________________
    [Профиль] [ЛС]
    Показать сообщения:    
    Ответить на тему

    Текущее время: Сегодня, в 10:50

    Часовой пояс: GMT + 2



    Вы не можете начинать темы
    Вы не можете отвечать на сообщения
    Вы не можете редактировать свои сообщения
    Вы не можете удалять свои сообщения
    Вы не можете голосовать в опросах
    Вы не можете прикреплять файлы к сообщениям
    Вы не можете скачивать файлы