BitTorrentTracker PerecTracker.org
BitTorrentTracker PerecTracker.org
    
Регистрация  ·  Вход
 
 · 
Забыли пароль?

  • Месть от кутюр / Портниха / The Dressmaker (Джослин Мурхаус / Jocelyn Moorhouse) [2015, Австралия, драма, BDRip-AVC] Dub + Original + Sub (rus, eng)

    Ответить на тему
     
    Автор Сообщение

    Light

    Создавать темы 07-Сен-2016 22:30

           

    [Цитировать]

    Месть от кутюр / Портниха / The Dressmaker«A film about love, revenge and haute couture»-Страна: Австралия
    Жанр: драма
    Год выпуска: 2015
    Продолжительность: 01:58:33
    Перевод: Профессиональный (дублированный) (iTunes)
    Оригинальная аудиодорожка: английский
    Cубтитры: русские (полные), английские (полные)
    Навигация по главам: есть
    Режиссер: Джослин Мурхаус / Jocelyn Moorhouse
    В ролях: Кейт Уинслет, Лиам Хемсворт, Сара Снук, Хьюго Уивинг, Кэролайн Гудолл, Джуди Дэвис, Керри Фокс, Ребекка Гибни, Шэйн Джейкобсон, Хейли Магнус
    Описание: Гламурная женщина возвращается в родной город, откуда уехала еще ребенком после обвинения в убийстве. Жители городка сначала не принимают ее, но постепенно она завоевывает расположение местных дам благодаря остроумию и умению кроить безупречные наряды.- -Качество видео: BDRip-AVC (исходник - Blu-ray|T_DRESSMAKER_BLUEBIRD)
    Формат видео: MKV
    Видео: x264, 1136x478 (2.40:1), 24.000 fps, ~1932 kbps, 0.148 bit/pixel
    Аудио 1: 48 kHz, AC3 Dolby Digital, 3/2 (L,C,R,l,r) + LFE ch, ~384 kbps [русский]
    Аудио 2: 48 kHz, AC3 Dolby Digital, 3/2 (L,C,R,l,r) + LFE ch, ~384 kbps [английский]
    Формат субтитров: softsub (SRT)
    MediaInfo | x264 log
    Format : Matroska
    Format version : Version 4 / Version 2
    File size : 2.28 GiB
    Duration : 1h 58mn
    Overall bit rate : 2 755 Kbps
    Movie name : Месть от кутюр / The Dressmaker (2015) :: AFM ::
    Encoded date : UTC 2016-09-05 07:11:52
    Writing application : mkvmerge v8.3.0 ('Over the Horizon') 32bit
    Writing library : libebml v1.3.1 + libmatroska v1.4.2
    Video
    ID : 1
    Format : AVC
    Format/Info : Advanced Video Codec
    Format profile : High@L4.1
    Format settings, CABAC : Yes
    Format settings, ReFrames : 10 frames
    Codec ID : V_MPEG4/ISO/AVC
    Duration : 1h 58mn
    Bit rate : 1 932 Kbps
    Width : 1 136 pixels
    Height : 478 pixels
    Display aspect ratio : 2.40:1
    Frame rate mode : Constant
    Frame rate : 24.000 fps
    Color space : YUV
    Chroma subsampling : 4:2:0
    Bit depth : 8 bits
    Scan type : Progressive
    Bits/(Pixel*Frame) : 0.148
    Stream size : 1.60 GiB (70%)
    Title : BDRip by AFM [RuTracker.org]
    Writing library : x264 core 148 r2705+54 9f484c1 t_mod_Custom [8-bit@all X86_64]
    Encoding settings : cabac=1 / ref=10 / deblock=1:-2:-2 / analyse=0x3:0x113 / me=umh / subme=10 / psy=1 / fade_compensate=0.00 / psy_rd=1.00:0.00 / mixed_ref=1 / me_range=32 / chroma_me=1 / trellis=2 / 8x8dct=1 / cqm=0 / deadzone=21,11 / fast_pskip=0 / chroma_qp_offset=-2 / threads=6 / lookahead_threads=1 / sliced_threads=0 / nr=0 / decimate=1 / interlaced=0 / bluray_compat=0 / constrained_intra=0 / fgo=0 / bframes=12 / b_pyramid=2 / b_adapt=2 / b_bias=0 / direct=1 / weightb=1 / open_gop=0 / weightp=2 / keyint=250 / keyint_min=23 / scenecut=40 / intra_refresh=0 / rc_lookahead=40 / rc=crf / mbtree=0 / crf=18.1000 / qcomp=0.65 / qpmin=0:0:0 / qpmax=69:69:69 / qpstep=4 / vbv_maxrate=50000 / vbv_bufsize=62500 / crf_max=0.0 / nal_hrd=none / filler=0 / ip_ratio=1.30 / pb_ratio=1.25 / aq=3:0.80 / aq-sensitivity=10.00 / aq-factor=1.00:1.00:1.00 / aq2=0 / aq3=0
    Language : English
    Default : Yes
    Forced : No
    Audio #1
    ID : 2
    Format : AC-3
    Format/Info : Audio Coding 3
    Mode extension : CM (complete main)
    Format settings, Endianness : Big
    Codec ID : A_AC3
    Duration : 1h 58mn
    Bit rate mode : Constant
    Bit rate : 384 Kbps
    Channel(s) : 6 channels
    Channel positions : Front: L C R, Side: L R, LFE
    Sampling rate : 48.0 KHz
    Compression mode : Lossy
    Stream size : 326 MiB (14%)
    Title : Dub, AC3 5.1 ~384 kbps
    Language : Russian
    Default : Yes
    Forced : No
    Audio #2
    ID : 3
    Format : AC-3
    Format/Info : Audio Coding 3
    Mode extension : CM (complete main)
    Format settings, Endianness : Big
    Codec ID : A_AC3
    Duration : 1h 58mn
    Bit rate mode : Constant
    Bit rate : 384 Kbps
    Channel(s) : 6 channels
    Channel positions : Front: L C R, Side: L R, LFE
    Sampling rate : 48.0 KHz
    Compression mode : Lossy
    Stream size : 326 MiB (14%)
    Title : Original, AC3 5.1 ~384 kbps
    Language : English
    Default : No
    Forced : No
    Text #1
    ID : 4
    Format : UTF-8
    Codec ID : S_TEXT/UTF8
    Codec ID/Info : UTF-8 Plain Text
    Language : Russian
    Default : No
    Forced : No
    Text #2
    ID : 5
    Format : UTF-8
    Codec ID : S_TEXT/UTF8
    Codec ID/Info : UTF-8 Plain Text
    Language : English
    Default : No
    Forced : No
    Menu
    00:00:00.000 : en:Chapter 1
    00:10:26.041 : en:Chapter 2
    00:19:38.083 : en:Chapter 3
    00:29:57.750 : en:Chapter 4
    00:40:56.791 : en:Chapter 5
    00:49:09.250 : en:Chapter 6
    01:00:15.750 : en:Chapter 7
    01:09:17.791 : en:Chapter 8
    01:21:44.750 : en:Chapter 9
    01:30:35.208 : en:Chapter 10
    01:39:33.708 : en:Chapter 11
    01:49:53.208 : en:Chapter 12

    x264

    x264 [info]: frame I:1623 Avg QP:17.06 size: 71643
    x264 [info]: frame P:34425 Avg QP:18.08 size: 22723
    x264 [info]: frame B:134662 Avg QP:20.23 size: 6433
    x264 [info]: consecutive B-frames: 1.6% 1.1% 5.7% 21.3% 19.5% 37.1% 4.6% 2.5% 3.5% 0.6% 0.6% 0.8% 1.0%
    x264 [info]: mb I I16..4: 5.6% 73.4% 21.0%
    x264 [info]: mb P I16..4: 0.9% 8.2% 1.5% P16..4: 38.3% 26.8% 15.6% 0.0% 0.0% skip: 8.8%
    x264 [info]: mb B I16..4: 0.1% 0.6% 0.2% B16..8: 34.8% 10.0% 3.0% direct: 4.4% skip:46.9% L0:41.4% L1:43.4% BI:15.1%
    x264 [info]: 8x8 transform intra:75.6% inter:61.6%
    x264 [info]: coded y,uvDC,uvAC intra: 85.2% 79.2% 54.2% inter: 18.3% 15.3% 2.7%
    x264 [info]: i16 v,h,dc,p: 36% 30% 5% 30%
    x264 [info]: i8 v,h,dc,ddl,ddr,vr,hd,vl,hu: 13% 10% 7% 8% 12% 13% 12% 12% 13%
    x264 [info]: i4 v,h,dc,ddl,ddr,vr,hd,vl,hu: 12% 8% 4% 9% 15% 15% 13% 11% 12%
    x264 [info]: i8c dc,h,v,p: 41% 23% 21% 15%
    x264 [info]: Weighted P-Frames: Y:2.1% UV:0.9%
    x264 [info]: ref P L0: 49.4% 12.5% 15.6% 5.8% 4.9% 3.5% 3.2% 1.7% 1.7% 1.6% 0.0% 0.0%
    x264 [info]: ref B L0: 75.0% 10.8% 5.5% 2.8% 2.1% 1.6% 1.4% 0.6% 0.3%
    x264 [info]: ref B L1: 93.9% 6.1%
    x264 [info]: kb/s:1984.81

    Скриншоты

    с названием

    Скачать .torrent

    Скачать торрент-файл бесплатно и на максимальной скорости!

    Как скачивать? · Что такое торрент? · Рейтинг и ограничения

    !ВНИМАНИЕ!
    Сайт не распространяет и не хранит электронные версии произведений, а занимается лишь лишь предоставлением доступа к создаваемому пользователями каталогу ссылок на торрент-файлы, которые содержат только списки хеш-сумм, убедительная просьба с жалобами обращаться напрямую к пользователю. Файлы для обмена на трекере предоставлены пользователями сайта, и администрация не несёт ответственности за их содержание. Просьба не заливать файлы, защищенные авторскими правами, а также файлы нелегального содержания!


    _________________
    [Профиль] [ЛС]
    Показать сообщения:    
    Ответить на тему

    Текущее время: Сегодня, в 20:57

    Часовой пояс: GMT + 2



    Вы не можете начинать темы
    Вы не можете отвечать на сообщения
    Вы не можете редактировать свои сообщения
    Вы не можете удалять свои сообщения
    Вы не можете голосовать в опросах
    Вы не можете прикреплять файлы к сообщениям
    Вы не можете скачивать файлы