BitTorrentTracker PerecTracker.org
BitTorrentTracker PerecTracker.org
    
Регистрация  ·  Вход
 
 · 
Забыли пароль?

  • Инцидент / El Incidente (Айзек Эзбэн / Isaac Ezban ) [2014, Мексика, Фантастика, WEB-DL, HD (720p)] MVO + Original + sub (rus)

    Ответить на тему
     
    Автор Сообщение

    rechyn

    Создавать темы 07-Сен-2016 18:18

           

    [Цитировать]

    Инцидент / El Incidente
    «The only way out is to keep going»
    6.80 / 10
    -Год выпуска: 2014
    Страна: Мексика
    Жанр: Фантастика
    Продолжительность: 01:40:50
    Перевод: Многоголосый закадровый (iTunes)
    Оригинальная аудиодорожка: Есть
    Cубтитры: Русские
    Режиссёр: Айзек Эзбэн
    Сценарий: Isaac Ezban
    Продюсер: Андреа Кирос, Salomón Askenazi, Isaac Cherem
    Оператор: Родриго Сандовал
    Композитор: Edy Lan
    Художник: Аделл Ачар, Vladimir Amok
    Монтаж: Salomón Askenazi
    В ролях: Рауль Мендес, Magda Brugengheim, Умберто Бусто, Erick Trinidad Camacho, Santiago Mendoza Cortes, Адриан Ладрон де Гевара, Enrique Mendoza, Эрнан Мендоса, Эктор Мендоса, Paulina Montemayor
    Мировая премьера: 17 мая 2014
    Описание: Двое братьев-подозреваемых спасаются бегством от вооруженного детектива. Фильм, первые минуты которого обманчиво выглядит как криминальная драма, резко прогрессирует в изобретательную научную фантастику, которая держит в парализующем напряжении ровно потому, что оперирует до гениальности простыми вещами. Семья, отправляющаяся к морю, многократно проезжает один и тот же дорожный указатель. Случайные предметы материализуются там, где их только что не было. Люди, застрявшие в пространственных петлях, по-разному справляются с ужасом осознания, что реальность сломалась. Отправной точкой этого страшного парадокса стал загадочный взрыв, на разгадку тайны которого у героев есть вся жизнь...-Качество исходника: WEB-DL 720p (NNMClub)
    Качество: WEB-DL
    Тип: HD (720p)
    Контейнер: M4V
    Видео: H.264, 1280x498, 2.570, 4 001 Kbps, 23.976 (24000/1001) fps
    Аудио 1: Русский/Многоголосый закадровый (iTunes), AAC / 2.0 / 160 Kbps / 48.0 KHz
    Аудио 2: Испанский/Оригинальная дорожка , AAC / 2.0 / 160 Kbps / 48.0 KHz
    Аудио 3: Русский/Многоголосый закадровый (iTunes), AC-3 / 5.1 / 384 Kbps / 48.0 KHz
    Субтитры: Русские полные
    -

    iTunes Meta Tags

    Sort Name: Инцидент
    XID: Apple:vendor_id:2014-829747
    contentID: 1138460800
    Screenwriters: Isaac Ezban
    Producers: Андреа Кирос, Salomón Askenazi, Isaac Cherem
    Director: Isaac Ezban
    Cast: Рауль Мендес, Magda Brugengheim, Умберто Бусто, Erick Trinidad Camacho, Santiago Mendoza Cortes, Адриан Ладрон де Гевара, Enrique Mendoza, Эрнан Мендоса, Эктор Мендоса, Paulina Montemayor
    Studio: Yellow Films
    Rating: 135
    Long Description: Двое братьев-подозреваемых спасаются бегством от вооруженного детектива. Фильм, первые минуты которого обманчиво выглядит как криминальная драма, резко прогрессирует в изобретательную научную фантастику, которая держит в парализующем напряжении ровно потому, что оперирует до гениальности простыми вещами. Семья, отправляющаяся к морю, многократно проезжает один и тот же дорожный указатель. Случайные предметы материализуются там, где их только что не было. Люди, застрявшие в пространственных петлях, по-разному справляются с ужасом осознания, что реальность сломалась. Отправной точкой этого страшного парадокса стал загадочный взрыв, на разгадку тайны которого у героев есть вся жизнь...
    Description: Двое братьев-подозреваемых спасаются бегством от вооруженного детектива. Фильм, первые минуты которого обманчиво выглядит как криминальная драма, резко прогрессирует в изобретательную научную фантастику, которая держит в парализующем напряжении ровно потому, что оперирует до гениальности простыми вещами.
    Release Date: 2014-05-17T08:00:00Z
    Genre: Триллеры
    Artist: Isaac Ezban
    Name: Инцидент

    MediaInfo

    General
    Complete name                            : /Users/imac/HandBrake/Incident.WEB-DL.720p.m4v
    Format                                   : MPEG-4
    Codec ID                                 : M4V  (M4V /M4A /mp42/isom)
    File size                                : 3.32 GiB
    Duration                                 : 1h 40mn
    Overall bit rate mode                    : Variable
    Overall bit rate                         : 4 707 Kbps
    Movie name                               : Инцидент
    Performer                                : Isaac Ezban
    Director                                 : Isaac Ezban
    Actor                                    : Рауль Мендес / Magda Brugengheim / Умберто Бусто / Erick Trinidad Camacho / Santiago Mendoza Cortes / Адриан Ладрон де Гевара / Enrique Mendoza / Эрнан Мендоса / Эктор Мендоса / Paulina Montemayor
    Screenplay by                            : Isaac Ezban
    Producer                                 : Андреа Кирос / Salomón Askenazi / Isaac Cherem
    Production studio                        : Yellow Films
    Genre                                    : Триллеры
    ContentType                              : Short Film
    Description                              : Двое братьев-подозреваемых спасаются бегством от вооруженного детектива. Фильм, первые минуты которого обманчиво выглядит как криминальная драма, резко прогрессирует в изобретательную научную фантастику, которая держит в парализующем напряжении ровно потому, что оперирует до гениальности простыми вещами.
    Recorded date                            : UTC 2014-05-17 08:00:00
    Encoded date                             : UTC 2016-09-07 10:55:04
    Tagged date                              : UTC 2016-09-07 10:56:15
    Cover                                    : Yes
    Rating                                   : None
    Title/Sort                               : Инцидент
    LongDescription                          : Двое братьев-подозреваемых спасаются бегством от вооруженного детектива. Фильм, первые минуты которого обманчиво выглядит как криминальная драма, резко прогрессирует в изобретательную научную фантастику, которая держит в парализующем напряжении ровно потому, что оперирует до гениальности простыми вещами. Семья, отправляющаяся к морю, многократно проезжает один и тот же дорожный указатель. Случайные предметы материализуются там, где их только что не было. Люди, застрявшие в пространственных петлях, по-разному справляются с ужасом осознания, что реальность сломалась. Отправной точкой этого страшного парадокса стал загадочный взрыв, на разгадку тайны которого у героев есть вся жизнь...
    HDVideo                                  : Yes
    AppleStoreCatalogID                      : 1138460800
    Vendor                                   : Apple:vendor_id:2014-829747
    ContentRating                            : ru-movie|16+|375|
    Video #1
    ID                                       : 1
    Format                                   : AVC
    Format/Info                              : Advanced Video Codec
    Format profile                           : Main@L3.1
    Format settings, CABAC                   : No
    Format settings, ReFrames                : 2 frames
    Codec ID                                 : avc1
    Codec ID/Info                            : Advanced Video Coding
    Duration                                 : 1h 40mn
    Bit rate                                 : 4 001 Kbps
    Width                                    : 1 280 pixels
    Height                                   : 498 pixels
    Display aspect ratio                     : 2.570
    Frame rate mode                          : Variable
    Frame rate                               : 23.976 (24000/1001) fps
    Minimum frame rate                       : 23.810 fps
    Maximum frame rate                       : 24.390 fps
    Color space                              : YUV
    Chroma subsampling                       : 4:2:0
    Bit depth                                : 8 bits
    Scan type                                : Progressive
    Bits/(Pixel*Frame)                       : 0.262
    Stream size                              : 2.82 GiB (85%)
    Title                                    : Main Program
    Language                                 : Spanish
    Encoded date                             : UTC 2016-09-07 10:55:04
    Tagged date                              : UTC 2016-09-07 10:55:47
    Color range                              : Limited
    Color primaries                          : BT.709
    Transfer characteristics                 : BT.709
    Matrix coefficients                      : BT.709
    Menus                                    : 6,7
    Video #2
    ID                                       : 7
    Format                                   : JPEG
    Codec ID                                 : jpeg
    Duration                                 : 1h 40mn
    Bit rate mode                            : Variable
    Bit rate                                 : 296 bps
    Width                                    : 640 pixels
    Height                                   : 249 pixels
    Display aspect ratio                     : 2.570
    Frame rate mode                          : Variable
    Frame rate                               : 0.001 fps
    Minimum frame rate                       : 0.001 fps
    Maximum frame rate                       : 0.004 fps
    Color space                              : YUV
    Chroma subsampling                       : 4:2:0
    Bit depth                                : 8 bits
    Compression mode                         : Lossy
    Bits/(Pixel*Frame)                       : 1.857
    Stream size                              : 253 KiB (0%)
    Title                                    : Chapter Images
    Language                                 : Spanish
    Default                                  : No
    Encoded date                             : UTC 2016-09-07 10:55:49
    Tagged date                              : UTC 2016-09-07 10:55:49
    Menu For                                 : 1
    Audio #1
    ID                                       : 2
    Format                                   : AAC
    Format/Info                              : Advanced Audio Codec
    Format profile                           : LC
    Codec ID                                 : 40
    Duration                                 : 1h 40mn
    Bit rate mode                            : Variable
    Bit rate                                 : 158 Kbps
    Maximum bit rate                         : 281 Kbps
    Channel(s)                               : 2 channels
    Channel positions                        : Front: L R
    Sampling rate                            : 48.0 KHz
    Frame rate                               : 46.875 fps (1024 spf)
    Compression mode                         : Lossy
    Stream size                              : 114 MiB (3%)
    Title                                    : Russian Stereo
    Language                                 : Russian
    Default                                  : Yes
    Alternate group                          : 1
    Encoded date                             : UTC 2016-09-07 10:55:04
    Tagged date                              : UTC 2016-09-07 10:55:10
    Fallback From                            : 4
    Audio #2
    ID                                       : 3
    Format                                   : AAC
    Format/Info                              : Advanced Audio Codec
    Format profile                           : LC
    Codec ID                                 : 40
    Duration                                 : 1h 40mn
    Bit rate mode                            : Variable
    Bit rate                                 : 154 Kbps
    Maximum bit rate                         : 318 Kbps
    Channel(s)                               : 2 channels
    Channel positions                        : Front: L R
    Sampling rate                            : 48.0 KHz
    Frame rate                               : 46.875 fps (1024 spf)
    Compression mode                         : Lossy
    Stream size                              : 111 MiB (3%)
    Title                                    : Spanish Stereo
    Language                                 : Spanish
    Default                                  : No
    Alternate group                          : 1
    Encoded date                             : UTC 2016-09-07 10:55:04
    Tagged date                              : UTC 2016-09-07 10:55:10
    Audio #3
    ID                                       : 4
    Format                                   : AC-3
    Format/Info                              : Audio Coding 3
    Mode extension                           : CM (complete main)
    Format settings, Endianness              : Big
    Codec ID                                 : ac-3
    Duration                                 : 1h 40mn
    Bit rate mode                            : Constant
    Bit rate                                 : 384 Kbps
    Channel(s)                               : 6 channels
    Channel positions                        : Front: L C R, Side: L R, LFE
    Sampling rate                            : 48.0 KHz
    Frame rate                               : 31.250 fps (1536 spf)
    Bit depth                                : 16 bits
    Compression mode                         : Lossy
    Stream size                              : 277 MiB (8%)
    Title                                    : Russian DD 5.1
    Language                                 : Russian
    Default                                  : Inherited From: 2
    Alternate group                          : 1
    Encoded date                             : UTC 2016-09-07 10:55:04
    Tagged date                              : UTC 2016-09-07 10:55:10
    Fallback To                              : 2
    Text
    ID                                       : 5
    Format                                   : Timed Text
    Muxing mode                              : sbtl
    Codec ID                                 : tx3g
    Duration                                 : 1h 36mn
    Bit rate mode                            : Variable
    Bit rate                                 : 65 bps
    Stream size                              : 46.0 KiB (0%)
    Title                                    : Russian full
    Language                                 : Russian
    Default                                  : Yes
    Forced                                   : No
    Alternate group                          : 2
    Encoded date                             : UTC 2016-09-07 10:55:04
    Tagged date                              : UTC 2016-09-07 10:55:10
    Menu #1
    00:00:00.000                             : 1
    00:16:25.151                             : 2
    00:33:19.331                             : 3
    00:49:59.914                             : 4
    01:05:08.072                             : 5
    01:19:10.956                             : 6
    01:36:13.228                             : 7
    Menu #2
    ID                                       : 6
    Codec ID                                 : text
    Duration                                 : 1h 40mn
    Language                                 : Spanish
    Encoded date                             : UTC 2016-09-07 10:55:47
    Tagged date                              : UTC 2016-09-07 10:55:47
    Bit rate mode                            : CBR
    Menu For                                 : 1
    00:00:00.000                             : 1
    00:16:25.151                             : 2
    00:33:19.331                             : 3
    00:49:59.914                             : 4
    01:05:08.072                             : 5
    01:19:10.956                             : 6
    01:36:13.228                             : 7

    Скриншоты


    -

    Релиз подготовлен для просмотра на Apple TV, iPad, iPhone, iPod Touch.
    Для просмотра данного релиза на компьютере с ОС Windows рекомендуется использовать VLC media player
    Скачать .torrent

    Скачать торрент-файл бесплатно и на максимальной скорости!

    Как скачивать? · Что такое торрент? · Рейтинг и ограничения

    !ВНИМАНИЕ!
    Сайт не распространяет и не хранит электронные версии произведений, а занимается лишь лишь предоставлением доступа к создаваемому пользователями каталогу ссылок на торрент-файлы, которые содержат только списки хеш-сумм, убедительная просьба с жалобами обращаться напрямую к пользователю. Файлы для обмена на трекере предоставлены пользователями сайта, и администрация не несёт ответственности за их содержание. Просьба не заливать файлы, защищенные авторскими правами, а также файлы нелегального содержания!


    _________________
    [Профиль] [ЛС]
    Показать сообщения:    
    Ответить на тему

    Текущее время: Сегодня, в 07:02

    Часовой пояс: GMT + 2



    Вы не можете начинать темы
    Вы не можете отвечать на сообщения
    Вы не можете редактировать свои сообщения
    Вы не можете удалять свои сообщения
    Вы не можете голосовать в опросах
    Вы не можете прикреплять файлы к сообщениям
    Вы не можете скачивать файлы