BitTorrentTracker PerecTracker.org
BitTorrentTracker PerecTracker.org
    
Регистрация  ·  Вход
 
 · 
Забыли пароль?

  • До встречи с тобой / Me Before You (Теа Шэррок / Thea Sharrock) [2016, США, Великобритания, драма, BDRip-AVC] Dub + Original + Sub (rus, eng)

    Ответить на тему
     
    Автор Сообщение

    rechyn

    Создавать темы 07-Сен-2016 14:06

           

    [Цитировать]

    До встречи с тобой / Me Before You-Страна: США, Великобритания
    Жанр: драма
    Год выпуска: 2016
    Продолжительность: 01:50:14
    Перевод: Профессиональный (дублированный) (IP-TV)
    Оригинальная аудиодорожка: английский
    Cубтитры: русские (полные), английские (полные, SDH)
    Навигация по главам: есть
    Режиссер: Теа Шэррок / Thea Sharrock
    В ролях: Сэм Клафлин, Эмилия Кларк, Ванесса Кирби, Эйлин Данвуди, Пабло Рэйбоулд, Гэбриэлль Дауни, Саманта Спиро, Брендан Койл
    Описание: Лу Кларк знает, сколько шагов от автобусной остановки до ее дома. Она знает, что ей очень нравится работа в кафе и что, скорее всего, она не любит своего бойфренда Патрика. Но Лу не знает, что вот-вот потеряет свою работу и что в ближайшем будущем ей понадобятся все силы, чтобы преодолеть свалившиеся на нее проблемы. Уилл Трейнор знает, что сбивший его мотоциклист отнял у него желание жить. И он точно знает, что надо сделать, чтобы положить конец всему этому. Но он не знает, что Лу скоро ворвется в его мир буйством красок. И они оба не знают, что навсегда изменят жизнь друг друга...- -Качество: BDRip-AVC (исходник - BDRemux|Me.Before.You.2016.REMUX.BluRay.1080p.AVC.DTS-HD.MA5.1-iFT)
    Формат видео: MKV
    Видео: x264, 1152x482 (2.40:1), 23.976 fps, ~2685 kbps, 0.202 bit/pixel
    Аудио 1: 48 kHz, AC3 Dolby Digital, 3/2 (L,C,R,l,r) + LFE ch, ~448 kbps [русский]
    Аудио 2: 48 kHz, AC3 Dolby Digital, 3/2 (L,C,R,l,r) + LFE ch, ~448 kbps [английский]
    Формат субтитров: softsub (SRT)-MediaInfo | x264 log
    Format : Matroska
    Format version : Version 4 / Version 2
    File size : 2.81 GiB
    Duration : 1h 50mn
    Overall bit rate : 3 654 Kbps
    Movie name : До встречи с тобой / Me Before You (2016) :: AFM ::
    Encoded date : UTC 2016-09-06 12:14:40
    Writing application : mkvmerge v8.3.0 ('Over the Horizon') 32bit
    Writing library : libebml v1.3.1 + libmatroska v1.4.2
    Video
    ID : 1
    Format : AVC
    Format/Info : Advanced Video Codec
    Format profile : High@L4.1
    Format settings, CABAC : Yes
    Format settings, ReFrames : 11 frames
    Codec ID : V_MPEG4/ISO/AVC
    Duration : 1h 50mn
    Bit rate : 2 685 Kbps
    Width : 1 152 pixels
    Height : 482 pixels
    Display aspect ratio : 2.40:1
    Frame rate mode : Constant
    Frame rate : 23.976 fps
    Color space : YUV
    Chroma subsampling : 4:2:0
    Bit depth : 8 bits
    Scan type : Progressive
    Bits/(Pixel*Frame) : 0.202
    Stream size : 2.07 GiB (73%)
    Title : BDRip by AFM [RuTracker.org]
    Writing library : x264 core 148 r2705+54 9f484c1 t_mod_Custom [8-bit@all X86_64]
    Encoding settings : cabac=1 / ref=11 / deblock=1:-3:-2 / analyse=0x3:0x113 / me=umh / subme=10 / psy=1 / fade_compensate=0.00 / psy_rd=1.00:0.00 / mixed_ref=1 / me_range=32 / chroma_me=1 / trellis=2 / 8x8dct=1 / cqm=0 / deadzone=21,11 / fast_pskip=0 / chroma_qp_offset=-2 / threads=6 / lookahead_threads=1 / sliced_threads=0 / nr=0 / decimate=1 / interlaced=0 / bluray_compat=0 / constrained_intra=0 / fgo=0 / bframes=13 / b_pyramid=2 / b_adapt=2 / b_bias=0 / direct=1 / weightb=1 / open_gop=0 / weightp=2 / keyint=250 / keyint_min=23 / scenecut=40 / intra_refresh=0 / rc_lookahead=40 / rc=crf / mbtree=0 / crf=17.5500 / qcomp=0.65 / qpmin=0:0:0 / qpmax=69:69:69 / qpstep=4 / vbv_maxrate=50000 / vbv_bufsize=62500 / crf_max=0.0 / nal_hrd=none / filler=0 / ip_ratio=1.30 / pb_ratio=1.25 / aq=3:0.85 / aq-sensitivity=10.00 / aq-factor=1.00:1.00:1.00 / aq2=0 / aq3=0
    Language : English
    Default : Yes
    Forced : No
    Audio #1
    ID : 2
    Format : AC-3
    Format/Info : Audio Coding 3
    Mode extension : CM (complete main)
    Format settings, Endianness : Big
    Codec ID : A_AC3
    Duration : 1h 50mn
    Bit rate mode : Constant
    Bit rate : 448 Kbps
    Channel(s) : 6 channels
    Channel positions : Front: L C R, Side: L R, LFE
    Sampling rate : 48.0 KHz
    Compression mode : Lossy
    Stream size : 353 MiB (12%)
    Title : Dub, AC3 5.1 ~448 kbps
    Language : Russian
    Default : Yes
    Forced : No
    Audio #2
    ID : 3
    Format : AC-3
    Format/Info : Audio Coding 3
    Mode extension : CM (complete main)
    Format settings, Endianness : Big
    Codec ID : A_AC3
    Duration : 1h 50mn
    Bit rate mode : Constant
    Bit rate : 448 Kbps
    Channel(s) : 6 channels
    Channel positions : Front: L C R, Side: L R, LFE
    Sampling rate : 48.0 KHz
    Compression mode : Lossy
    Stream size : 353 MiB (12%)
    Title : Original, AC3 5.1 ~448 kbps
    Language : English
    Default : No
    Forced : No
    Text #1
    ID : 4
    Format : UTF-8
    Codec ID : S_TEXT/UTF8
    Codec ID/Info : UTF-8 Plain Text
    Language : Russian
    Default : No
    Forced : No
    Text #2
    ID : 5
    Format : UTF-8
    Codec ID : S_TEXT/UTF8
    Codec ID/Info : UTF-8 Plain Text
    Language : English
    Default : No
    Forced : No
    Text #3
    ID : 6
    Format : UTF-8
    Codec ID : S_TEXT/UTF8
    Codec ID/Info : UTF-8 Plain Text
    Title : SDH
    Language : English
    Default : No
    Forced : No
    Menu
    00:00:00.000 : en:Chapter 1
    00:12:40.967 : en:Chapter 2
    00:20:01.575 : en:Chapter 3
    00:29:06.243 : en:Chapter 4
    00:39:38.416 : en:Chapter 5
    00:49:13.867 : en:Chapter 6
    01:01:15.545 : en:Chapter 7
    01:10:16.795 : en:Chapter 8
    01:19:16.417 : en:Chapter 9
    01:32:06.479 : en:Chapter 10
    01:37:58.329 : en:Chapter 11
    01:45:55.349 : en:Chapter 12

    x264

    x264 [info]: frame I:1427 Avg QP:15.66 size: 86243
    x264 [info]: frame P:30222 Avg QP:16.92 size: 32266
    x264 [info]: frame B:126940 Avg QP:18.89 size: 9296
    x264 [info]: consecutive B-frames: 1.3% 0.9% 3.7% 20.2% 17.1% 35.5% 7.4% 8.9% 1.5% 0.5% 0.4% 1.2% 0.3% 1.0%
    x264 [info]: mb I I16..4: 3.8% 76.2% 20.1%
    x264 [info]: mb P I16..4: 0.4% 7.2% 1.6% P16..4: 34.1% 31.7% 20.3% 0.0% 0.0% skip: 4.8%
    x264 [info]: mb B I16..4: 0.1% 0.6% 0.2% B16..8: 36.1% 13.6% 4.9% direct: 5.2% skip:39.5% L0:43.5% L1:42.8% BI:13.7%
    x264 [info]: 8x8 transform intra:76.5% inter:55.7%
    x264 [info]: coded y,uvDC,uvAC intra: 88.4% 90.3% 78.7% inter: 23.6% 18.4% 6.7%
    x264 [info]: i16 v,h,dc,p: 54% 13% 7% 26%
    x264 [info]: i8 v,h,dc,ddl,ddr,vr,hd,vl,hu: 18% 9% 11% 8% 11% 11% 11% 10% 11%
    x264 [info]: i4 v,h,dc,ddl,ddr,vr,hd,vl,hu: 37% 6% 4% 7% 10% 10% 9% 8% 9%
    x264 [info]: i8c dc,h,v,p: 42% 21% 23% 14%
    x264 [info]: Weighted P-Frames: Y:3.3% UV:1.5%
    x264 [info]: ref P L0: 45.4% 11.0% 17.2% 6.3% 5.7% 3.8% 3.7% 1.9% 1.9% 1.4% 1.6% 0.0% 0.0%
    x264 [info]: ref B L0: 68.6% 12.4% 6.5% 3.6% 2.6% 2.3% 1.8% 1.2% 0.7% 0.3%
    x264 [info]: ref B L1: 93.3% 6.7%
    x264 [info]: kb/s:2755.40

    Скриншоты

    с названием

    ~~ Source ~~

    ~~ Rip ~~
    Скачать .torrent

    Скачать торрент-файл бесплатно и на максимальной скорости!

    Как скачивать? · Что такое торрент? · Рейтинг и ограничения

    !ВНИМАНИЕ!
    Сайт не распространяет и не хранит электронные версии произведений, а занимается лишь лишь предоставлением доступа к создаваемому пользователями каталогу ссылок на торрент-файлы, которые содержат только списки хеш-сумм, убедительная просьба с жалобами обращаться напрямую к пользователю. Файлы для обмена на трекере предоставлены пользователями сайта, и администрация не несёт ответственности за их содержание. Просьба не заливать файлы, защищенные авторскими правами, а также файлы нелегального содержания!


    _________________
    [Профиль] [ЛС]
    Показать сообщения:    
    Ответить на тему

    Текущее время: Сегодня, в 11:52

    Часовой пояс: GMT + 2



    Вы не можете начинать темы
    Вы не можете отвечать на сообщения
    Вы не можете редактировать свои сообщения
    Вы не можете удалять свои сообщения
    Вы не можете голосовать в опросах
    Вы не можете прикреплять файлы к сообщениям
    Вы не можете скачивать файлы