BitTorrentTracker PerecTracker.org
BitTorrentTracker PerecTracker.org
    
Регистрация  ·  Вход
 
 · 
Забыли пароль?

  • Невероятное перемещение (Александр Анисимов) [2014, Республика Беларусь, детский, приключения, DVB] Original Rus

    Ответить на тему
     
    Автор Сообщение

    Light

    Создавать темы 07-Сен-2016 14:06

           

    [Цитировать]

    Невероятное перемещение
    Страна: Республика Беларусь
    Производство: Беларусьфильм
    Жанр: детский, приключения
    Год выпуска: 2014
    Продолжительность: 01:29:22
    Перевод: Не требуется
    Cубтитры: нет
    Оригинальная аудиодорожка: русский
    Режиссер: Александр Анисимов
    В ролях: Сева Малицкий, Катя Острога, Александр Овчинников, Дмитрий Есеневич, Геннадий Фомин, Наталья Горбатенко, Сергей Савенков, Артур Шуляк, Диана Чикранова, Маша Козловская, Анатолий Голуб, Анна Южакова, Светлана Суховей, Александр Жданович, Инна Савенкова, Алеся Лесникова, Наталья Онищенко, Виктор Васильев, Александр Демьянков
    Описание: Школьник Ваня Фёдоров убегает с уроков, чтобы, воспользовавшись отсутствием родителей, протестировать изобретенную им самим универсальную компьютерную программу для приготовления уроков. Но из-за сбоя в программе Ваня вместо ожидаемого реферата получает…трёх гостей из прошлого, одним из которых является не кто-нибудь, а Филипп Ауреол Теофраст Бомбаст фон Гогенхайм, в будущем известный, как доктор медицины Парацельс. Ваня и его сестра Лиза должны во что бы то ни стало успеть вернуть Парацельса в прошлое, чтобы он мог совершить свои открытия и остановить вспышку чумы…
    Доп. информация:
    Сценарист: Маргарита Шаграй
    Оператор: Дмитрий Рудь
    Композитор: Олег Гембицкий
    Художник: Владимир Царикович
    «Невероятное перемещение» снимали в Минске, а также в пригородной деревне Прилуки на старом пивоваренном заводе. В фильме обыграны самые знаковые скульптуры белорусского мастера Владимира Жбанова – «Почтальон» (возле кинотеатра «Октябрь»), «Незнакомка» (Михайловский сквер), «Карета губернатора» (пл. Свободы). Так режиссер Александр Анисимов отдал дань памяти своему другу, который ушел из жизни в 2012 году.
    Запись потока *.ts с наземного цифрового телеканала "Беларусь 3".
    Во время показа финальных титров происходит показ анонса следующей передачи - видно на последнем скрине.

    Благодарность: за помощь с недостающим материалом Bartimeyse. Большое спасибо!
    Качество: DVB
    Контейнер: TS
    Видео кодек: H.264
    Аудио кодек: MP2
    Видео: MPEG4 Video (H264) 720(785)x576 (49:36) 25fps, 2 268 Kbps
    Аудио: MPEG Audio 48000Hz stereo 256kbps
    Сэмпл: https://www.sendspace.com/file/i33k3s

    MediaInfo

    GeneralID : 1 (0x1)Complete name : D:\Новая земля 2\Художественные фильмы\Невероятное перемещение (2014)\Невероятное перемещение (2014).tsFormat : MPEG-TSFile size : 1.66 GiBDuration : 1h 29mnOverall bit rate mode : VariableOverall bit rate : 2 658 Kbps
    VideoID : 513 (0x201)Menu ID : 1 (0x1)Format : AVCFormat/Info : Advanced Video CodecFormat profile : Main@L3.0Format settings, CABAC : YesFormat settings, ReFrames : 4 framesFormat settings, GOP : M=4, N=24Codec ID : 27Duration : 1h 29mnBit rate : 2 268 KbpsWidth : 720 pixelsHeight : 576 pixelsDisplay aspect ratio : 4:3Frame rate : 25.000 fpsStandard : PALColor space : YUVChroma subsampling : 4:2:0Bit depth : 8 bitsScan type : MBAFFScan order : Top Field FirstBits/(Pixel*Frame) : 0.219Stream size : 1.42 GiB (85%)Color primaries : BT.601 PALTransfer characteristics : BT.470 System B, BT.470 System GMatrix coefficients : BT.601Color range : Limited
    AudioID : 514 (0x202)Menu ID : 1 (0x1)Format : MPEG AudioFormat version : Version 1Format profile : Layer 2Codec ID : 3Duration : 1h 29mnBit rate mode : ConstantBit rate : 256 KbpsChannel(s) : 2 channelsSampling rate : 48.0 KHzCompression mode : LossyStream size : 164 MiB (10%)Language : English

    Скриншот c названием фильма

    Скриншоты

    Скачать .torrent

    Скачать торрент-файл бесплатно и на максимальной скорости!

    Как скачивать? · Что такое торрент? · Рейтинг и ограничения

    !ВНИМАНИЕ!
    Сайт не распространяет и не хранит электронные версии произведений, а занимается лишь лишь предоставлением доступа к создаваемому пользователями каталогу ссылок на торрент-файлы, которые содержат только списки хеш-сумм, убедительная просьба с жалобами обращаться напрямую к пользователю. Файлы для обмена на трекере предоставлены пользователями сайта, и администрация не несёт ответственности за их содержание. Просьба не заливать файлы, защищенные авторскими правами, а также файлы нелегального содержания!


    _________________
    [Профиль] [ЛС]

    -746

    Создавать темы 09-Сен-2016 09:25 (спустя 1 день 19 часов)

           

    Топік був перенесений з форуму Фильмы 2011-2015 у форум Детские отечественные фильмы

    rechyn

    _________________
    Как бы ты высоко не летал, не забывай, с кем ты ползал..
     
    Показать сообщения:    
    Ответить на тему

    Текущее время: Сегодня, в 02:24

    Часовой пояс: GMT + 2



    Вы не можете начинать темы
    Вы не можете отвечать на сообщения
    Вы не можете редактировать свои сообщения
    Вы не можете удалять свои сообщения
    Вы не можете голосовать в опросах
    Вы не можете прикреплять файлы к сообщениям
    Вы не можете скачивать файлы