BitTorrentTracker PerecTracker.org
BitTorrentTracker PerecTracker.org
    
Регистрация  ·  Вход
 
 · 
Забыли пароль?

  • Хорошее убийство / Good Kill (Эндрю Никкол / Andrew Niccol) [2014, США, драма, HDRip-AVC] MVO (Первый канал)

    Ответить на тему
     
    Автор Сообщение

    Light

    Создавать темы 06-Сен-2016 21:19

           

    [Цитировать]

    Хорошее убийство
    Good Kill
    Страна: США
    Жанр: драма
    Год выпуска: 2014
    Продолжительность: 01:42:56-Перевод: Профессиональный (многоголосый закадровый) Первый канал
    Cубтитры: нет
    Оригинальная аудиодорожка: нет-Режиссер: Эндрю Никкол / Andrew Niccol
    В ролях: Итан Хоук, Брюс Гринвуд, Питер Койот, Джейнуари Джонс, Зои Кравец, Джек Эйбл, Дилан Кенин, Кевин Уиггинс, Кристен Рейкс, Майкл Шитс, Стэффорд Дуглас-Описание: Основано на реальных событиях
    Томас Иган – военнослужащий ВВС США. Раньше он пилотировал истребитель и имел 200 боевых вылетов. Но, совершив аварию и уничтожив свой F-16 Viper, был переведён на службу более тонкую: управлять дроном, поражая цели дистанционно. Теперь Томми каждый день воюет на родине, в Лас-Вегасе, после возвращаясь с базы домой к семье, но это не делает его счастливым. Убивать террористов, которые находятся на другом конце света, в Афганистане и Пакистане, с помощью точного ракетного выстрела – непростая задача, как с точки зрения самого процесса, так и с моральной стороны. Испытывая проблемы в отношениях с родными и адаптацией к нормальной жизни, Томми всё чаще задумывается о полезности и правильности своей работы-Доп. информация:
    О переводе: Перевод на трекере появляется впервые
    Качество: IPTV (Первый канал)
    Запись и синхронизация: mister55555-Сэмпл: минута57сек-Качество видео: HDRip-AVC (спасибо Tonik777 с рутора Хорошее убийство / Good Kill (2014) BDRip 720p | iTunes)
    Формат видео: MKV
    Видео: AVC, 1072х448, 2,40:1, 23,976 кадра/сек, 1850 Кбит/сек
    Аудио: AC-3, 48,0 КГц, 192 Кбит/сек, 2 канала (многоголосый Первый канал)
    MediaInfo

    x264.log

    x264.exe: --pass 2 --bitrate 1850 --preset veryslow --profile high --level 4.1 --aq-mode 2 --sar 1:1 --stats
    avs [info]: 1072x448p 1:1 @ 24000/1001 fps (cfr)
    x264 [info]: using SAR=1/1
    x264 [info]: using cpu capabilities: MMX2 SSE2Fast SSSE3 SSE4.1 Cache64
    x264 [info]: profile High, level 4.1
    x264 [info]: frame I:1508 Avg QP:12.64 size: 87487
    x264 [info]: frame P:28330 Avg QP:15.38 size: 24966
    x264 [info]: frame B:118064 Avg QP:18.41 size: 4954
    x264 [info]: consecutive B-frames: 2.0% 1.5% 3.8% 10.5% 12.1% 54.4% 6.5% 4.8% 4.4%
    x264 [info]: mb I I16..4: 7.5% 67.6% 24.9%
    x264 [info]: mb P I16..4: 1.2% 5.4% 0.8% P16..4: 38.4% 23.3% 18.2% 1.2% 0.5% skip:11.1%
    x264 [info]: mb B I16..4: 0.0% 0.3% 0.0% B16..8: 39.0% 9.2% 2.4% direct: 4.2% skip:44.9% L0:45.7% L1:46.0% BI: 8.3%
    x264 [info]: 8x8 transform intra:71.0% inter:56.4%
    x264 [info]: direct mvs spatial:98.0% temporal:2.0%
    x264 [info]: coded y,uvDC,uvAC intra: 81.3% 74.1% 54.3% inter: 19.1% 15.1% 3.2%
    x264 [info]: i16 v,h,dc,p: 42% 14% 12% 31%
    x264 [info]: i8 v,h,dc,ddl,ddr,vr,hd,vl,hu: 10% 9% 10% 10% 13% 12% 12% 11% 13%
    x264 [info]: i4 v,h,dc,ddl,ddr,vr,hd,vl,hu: 11% 10% 6% 10% 14% 13% 12% 11% 13%
    x264 [info]: i8c dc,h,v,p: 47% 24% 18% 11%
    x264 [info]: Weighted P-Frames: Y:3.2% UV:1.9%
    x264 [info]: ref P L0: 44.0% 7.3% 16.9% 7.0% 5.9% 4.3% 3.8% 2.0% 1.8% 1.4% 1.3% 1.1% 1.0% 0.9% 0.9% 0.6%
    x264 [info]: ref B L0: 68.9% 11.7% 6.2% 3.0% 2.4% 2.1% 1.6% 0.9% 0.7% 0.6% 0.5% 0.5% 0.4% 0.3% 0.1%
    x264 [info]: ref B L1: 91.2% 8.8%
    x264 [info]: kb/s:1846.86
    encoded 147902 frames, 8.00 fps, 1846.86 kb/s
    Общее
    Уникальный идентификатор : 229058894505246634481273435921688100904 (0xAC53236DE4B14193924BBA3A5E310028)
    Полное имя : Хорошее убийство.2014.HDRip.mkv
    Формат : Matroska
    Версия формата : Version 2
    Размер файла : 1,47 Гбайт
    Продолжительность : 1 ч. 42 м.
    Общий поток : 2038 Кбит/сек
    Название фильма : Хорошее убийство / Good Kill / 2014 / HDRip
    Дата кодирования : UTC 2016-07-26 04:31:27
    Программа кодирования : mkvmerge v8.3.0 ('Over the Horizon') 32bit
    Библиотека кодирования : libebml v1.3.1 + libmatroska v1.4.2
    Видео
    Идентификатор : 1
    Формат : AVC
    Формат/Информация : Advanced Video Codec
    Профиль формата : High@L4.1
    Параметр CABAC формата : Да
    Параметр ReFrames формата : 16 кадров
    Идентификатор кодека : V_MPEG4/ISO/AVC
    Продолжительность : 1 ч. 42 м.
    Битрейт : 1850 Кбит/сек
    Ширина : 1072 пикселя
    Высота : 448 пикселей
    Соотношение сторон : 2,40:1
    Режим частоты кадров : Постоянный
    Частота кадров : 23,976 (24000/1001) кадра/сек
    Цветовое пространство : YUV
    Субдискретизация насыщенности : 4:2:0
    Битовая глубина : 8 бит
    Тип развёртки : Прогрессивная
    Бит/(Пиксели*Кадры) : 0.161
    Размер потока : 1,30 Гбайт (89%)
    Заголовок : Хорошее убийство / Good Kill / 2014 / HDRip
    Библиотека кодирования : x264 core 146 r2538 121396c
    Настройки программы : cabac=1 / ref=16 / deblock=1:0:0 / analyse=0x3:0x133 / me=umh / subme=10 / psy=1 / psy_rd=1.00:0.00 / mixed_ref=1 / me_range=24 / chroma_me=1 / trellis=2 / 8x8dct=1 / cqm=0 / deadzone=21,11 / fast_pskip=1 / chroma_qp_offset=-2 / threads=6 / lookahead_threads=1 / sliced_threads=0 / nr=0 / decimate=1 / interlaced=0 / bluray_compat=0 / constrained_intra=0 / bframes=8 / b_pyramid=2 / b_adapt=2 / b_bias=0 / direct=3 / weightb=1 / open_gop=0 / weightp=2 / keyint=250 / keyint_min=23 / scenecut=40 / intra_refresh=0 / rc_lookahead=60 / rc=2pass / mbtree=1 / bitrate=1850 / ratetol=1.0 / qcomp=0.60 / qpmin=0 / qpmax=69 / qpstep=4 / cplxblur=20.0 / qblur=0.5 / ip_ratio=1.40 / aq=2:1.00
    Язык : English
    Default : Да
    Forced : Нет
    Аудио
    Идентификатор : 2
    Формат : AC-3
    Формат/Информация : Audio Coding 3
    Расширение режима : CM (complete main)
    Параметр Endianness формата : Big
    Идентификатор кодека : A_AC3
    Продолжительность : 1 ч. 42 м.
    Вид битрейта : Постоянный
    Битрейт : 192 Кбит/сек
    Каналы : 2 канала
    Расположение каналов : Front: L R
    Частота : 48,0 КГц
    Частота кадров : 31,250 кадров/сек (1536 spf)
    Метод сжатия : С потерями
    Размер потока : 141 Мбайт (9%)
    Заголовок : многоголосый Первый канал
    Язык : Russian
    Default : Да
    Forced : Нет

    Скриншот c названием фильма

    Скриншоты

    Скачать .torrent

    Скачать торрент-файл бесплатно и на максимальной скорости!

    Как скачивать? · Что такое торрент? · Рейтинг и ограничения

    !ВНИМАНИЕ!
    Сайт не распространяет и не хранит электронные версии произведений, а занимается лишь лишь предоставлением доступа к создаваемому пользователями каталогу ссылок на торрент-файлы, которые содержат только списки хеш-сумм, убедительная просьба с жалобами обращаться напрямую к пользователю. Файлы для обмена на трекере предоставлены пользователями сайта, и администрация не несёт ответственности за их содержание. Просьба не заливать файлы, защищенные авторскими правами, а также файлы нелегального содержания!


    _________________
    [Профиль] [ЛС]
    Показать сообщения:    
    Ответить на тему

    Текущее время: Сегодня, в 10:50

    Часовой пояс: GMT + 2



    Вы не можете начинать темы
    Вы не можете отвечать на сообщения
    Вы не можете редактировать свои сообщения
    Вы не можете удалять свои сообщения
    Вы не можете голосовать в опросах
    Вы не можете прикреплять файлы к сообщениям
    Вы не можете скачивать файлы