BitTorrentTracker PerecTracker.org
BitTorrentTracker PerecTracker.org
    
Регистрация  ·  Вход
 
 · 
Забыли пароль?

  • Неоновый демон / The Neon Demon (Николас Виндинг Рефн / Nicolas Winding Refn) [2016, Франция, Дания, США, Ужасы, триллер, WEB-DLRip] VO (Матвеев)

    Ответить на тему
     
    Автор Сообщение

    rechyn

    Создавать темы 06-Сен-2016 08:43

           

    [Цитировать]

    Неоновый демон / The Neon Demon

    «The wicked die young»
    -Страна: Франция, Дания, США
    Жанр: Ужасы, триллер
    Год выпуска: 2016
    Продолжительность: 01:57:53
    Перевод: Одноголосый закадровый - Матвеев
    Cубтитры: нет-Режиссер: Николас Виндинг Рефн / Nicolas Winding Refn-В ролях: Эль Фаннинг, Карл Глусман, Джена Мэлоун, Белла Хиткот, Эбби Ли, Десмонд Хэррингтон, Кристина Хендрикс, Киану Ривз, Чарльз Бэйкер, Джеми Клейтон-Описание: Провинциалка Джесси, мечтающая стать супермоделью, едва окончив школу, отправляется покорять Лос-Анджелес. Через тернии (одна, без денег, чужой город, дешевый мотель), но и через нужные знакомства, фотосессии, вечеринки — к звездам. И вот это сладкое слово «слава» становится былью для юной красавицы. Но за стремительный карьерный взлет придется расплатиться — конкурентки из ненависти и безумной зависти готовы на многое.-Сэмпл: http://multi-up.com/1116425-Релиз: Twi7ter & ExKinoRay-Качество видео: WEB-DLRip
    Формат видео: AVI
    Видео: 720x304 (2.35:1), 24.000 fps, XviD build 73, 1390 Kbps, 0.26 bit/pixel
    Аудио: 48.0 kHz, AC3 Dolby Digital, 3/2 (L,C,R,l,r) + LFE ch, 384 Kbps

    MediaInfo

    General
    Complete name : Downloads\Neonovyj.demon.2016.Matveev.WEB-DLRip.1.46Gb_ExKinoRay_by_Twi7ter.avi
    Format : AVI
    Format/Info : Audio Video Interleave
    File size : 1.46 GiB
    Duration : 1h 57mn
    Overall bit rate : 1 783 Kbps
    Movie name : Neonovyj.demon.2016.Matveev.WEB-DLRip.1.46Gb_ExKinoRay_by_Twi7ter
    Director : Twi7ter
    Genre : Horror/Thriller
    Writing application : VirtualDubMod 1.5.10.3 (build 2550/release)
    Original source form/Name : Movie
    Video #0
    ID : 0
    Format : MPEG-4 Visual
    Format profile : Advanced Simple@L5
    Format settings, BVOP : 2
    Format settings, QPel : No
    Format settings, GMC : No warppoints
    Format settings, Matrix : Custom
    Codec ID : XVID
    Codec ID/Hint : XviD
    Duration : 1h 57mn
    Bit rate : 1 390 Kbps
    Width : 720 pixels
    Height : 304 pixels
    Display aspect ratio : 2.35:1
    Frame rate : 24.000 fps
    Color space : YUV
    Chroma subsampling : 4:2:0
    Bit depth : 8 bits
    Scan type : Progressive
    Compression mode : Lossy
    Bits/(Pixel*Frame) : 0.265
    Stream size : 1.14 GiB (78%)
    Writing library : XviD 73
    Audio #1
    ID : 1
    Format : AC-3
    Format/Info : Audio Coding 3
    Mode extension : CM (complete main)
    Format settings, Endianness : Big
    Codec ID : 2000
    Duration : 1h 57mn
    Bit rate mode : Constant
    Bit rate : 384 Kbps
    Channel(s) : 6 channels
    Channel positions : Front: L C R, Side: L R, LFE
    Sampling rate : 48.0 KHz
    Bit depth : 16 bits
    Compression mode : Lossy
    Stream size : 322 MiB (22%)
    Alignment : Split accross interleaves
    Interleave, duration : 42 ms (1.00 video frame)
    Interleave, preload duration : 500 ms

    Скриншот c названием фильма

    Скриншоты

    Скачать .torrent

    Скачать торрент-файл бесплатно и на максимальной скорости!

    Как скачивать? · Что такое торрент? · Рейтинг и ограничения

    !ВНИМАНИЕ!
    Сайт не распространяет и не хранит электронные версии произведений, а занимается лишь лишь предоставлением доступа к создаваемому пользователями каталогу ссылок на торрент-файлы, которые содержат только списки хеш-сумм, убедительная просьба с жалобами обращаться напрямую к пользователю. Файлы для обмена на трекере предоставлены пользователями сайта, и администрация не несёт ответственности за их содержание. Просьба не заливать файлы, защищенные авторскими правами, а также файлы нелегального содержания!


    _________________
    [Профиль] [ЛС]
    Показать сообщения:    
    Ответить на тему

    Текущее время: Сегодня, в 10:39

    Часовой пояс: GMT + 2



    Вы не можете начинать темы
    Вы не можете отвечать на сообщения
    Вы не можете редактировать свои сообщения
    Вы не можете удалять свои сообщения
    Вы не можете голосовать в опросах
    Вы не можете прикреплять файлы к сообщениям
    Вы не можете скачивать файлы