BitTorrentTracker PerecTracker.org
BitTorrentTracker PerecTracker.org
    
Регистрация  ·  Вход
 
 · 
Забыли пароль?

  • Железный человек 3 / Iron Man 3 (Шэйн Блэк / Shane Black) [2013, США, Китай, фантастика, боевик, приключения, HDRip] AVO (Живов)

    Ответить на тему
     
    Автор Сообщение

    Light

    Создавать темы 06-Сен-2016 08:43

           

    [Цитировать]

    Железный человек 3
    Iron Man 3
    -Год выпуска: 2013
    Страна: США, Китай | Marvel Studios
    Жанр: фантастика, боевик, приключения
    Продолжительность: 02:10:33
    Перевод: Авторский (одноголосый закадровый)
    Субтитры: нет
    Оригинальная аудиодорожка: нет-Режиссер: Шейн Блэк / Shane Black-В ролях: Роберт Дауни мл., Гвинет Пэлтроу, Дон Чидл, Гай Пирс, Бен Кингсли, Джеймс Бэдж Дэйл, Ребекка Холл, Тай Симпкинс, Уильям Сэдлер, Джон Фавро.-Описание: Продолжение приключенческой эпопеи про жизнь невероятного Тони Старка. Какие напасти обрушились на голову Тони Старка на этот раз. После самоотверженной командной работы в рядах Мстителей, позволившей спасти Землю от инопланетных захватчиков, а Нью-Йорк от полного уничтожения, Тони Старк осознал свою уязвимость, почувствовал себя букашкой в консервной банке и начал страдать от приступов паники. Бороться с психологическими проблемами Старк решил с помощью изнуряющей работы над усовершенствованием костюма Железного человека. Уйдя с головой в работу, Тони пропустил появление нового террориста номер один по имени Мандарин, который обещает подорвать мирную жизнь американцев. Когда в одном из терактов серьезное ранение получает телохранитель и друг Старка, миллиардер вызывает террориста на бой. Преступник не заставляет себя ждать и уничтожает дом Старка в Малибу. Теперь герой лишается своего костюма и вынужден бороться со злодеем буквально голыми руками.-Релиз от: FAGOT100-Качество видео: HDRip
    Формат видео: AVI | Sample
    Видео: 720x304 (2.37:1), 23.976 fps, XviD build 73 ~1207 kbps avg, 0.23 bit/pixel
    Аудио: 48 kHz, AC3 Dolby Digital, 3/2 (L,C,R,l,r) + LFE ch, ~384.00 kbps avg | AVO Живов

    Инфо

    Формат : AVI
    Формат/Информация : Audio Video Interleave
    Размер файла : 1,46 Гбайт
    Продолжительность : 2 ч. 10 м.
    Общий поток : 1600 Кбит/сек
    Программа кодирования : VirtualDubMod 1.5.10.3 | (build 2550/release)
    Библиотека кодирования : VirtualDubMod build 2550/release
    Видео
    Идентификатор : 0
    Формат : MPEG-4 Visual
    Профиль формата : Advanced Simple@L5
    Параметр BVOP формата : Да
    Параметр QPel формата : Нет
    Параметр GMC формата : Без точки перехода
    Параметр матрицы формата : Выборочная
    Идентификатор кодека : XVID
    Идентификатор кодека/Подсказка : XviD
    Продолжительность : 2 ч. 10 м.
    Битрейт : 1207 Кбит/сек
    Ширина : 720 пикселей
    Высота : 304 пикселя
    Соотношение сторон : 2,35:1
    Частота кадров : 23,976 (23976/1000) кадра/сек
    Цветовое пространство : YUV
    Субдискретизация насыщенности : 4:2:0
    Битовая глубина : 8 бит
    Тип развёртки : Прогрессивная
    Метод сжатия : С потерями
    Бит/(Пиксели*Кадры) : 0.230
    Размер потока : 1,10 Гбайт (75%)
    Библиотека кодирования : XviD 73
    Аудио
    Идентификатор : 1
    Формат : AC-3
    Формат/Информация : Audio Coding 3
    Расширение режима : CM (complete main)
    Параметр Endianness формата : Big
    Идентификатор кодека : 2000
    Продолжительность : 2 ч. 10 м.
    Вид битрейта : Постоянный
    Битрейт : 384 Кбит/сек
    Каналы : 6 каналов
    Расположение каналов : Front: L C R, Side: L R, LFE
    Частота : 48,0 КГц
    Частота кадров : 31,250 кадров/сек (1536 spf)
    Метод сжатия : С потерями
    Размер потока : 359 Мбайт (24%)
    Выравнивание : Разделение по промежуткам
    Продолжительность промежутка : 42 мс. (1,00 видеокадр)
    Время предзагрузки промежутка : 500 мс.

    Скриншоты

    Скачать .torrent

    Скачать торрент-файл бесплатно и на максимальной скорости!

    Как скачивать? · Что такое торрент? · Рейтинг и ограничения

    !ВНИМАНИЕ!
    Сайт не распространяет и не хранит электронные версии произведений, а занимается лишь лишь предоставлением доступа к создаваемому пользователями каталогу ссылок на торрент-файлы, которые содержат только списки хеш-сумм, убедительная просьба с жалобами обращаться напрямую к пользователю. Файлы для обмена на трекере предоставлены пользователями сайта, и администрация не несёт ответственности за их содержание. Просьба не заливать файлы, защищенные авторскими правами, а также файлы нелегального содержания!


    _________________
    [Профиль] [ЛС]
    Показать сообщения:    
    Ответить на тему

    Текущее время: Сегодня, в 16:13

    Часовой пояс: GMT + 2



    Вы не можете начинать темы
    Вы не можете отвечать на сообщения
    Вы не можете редактировать свои сообщения
    Вы не можете удалять свои сообщения
    Вы не можете голосовать в опросах
    Вы не можете прикреплять файлы к сообщениям
    Вы не можете скачивать файлы