BitTorrentTracker PerecTracker.org
BitTorrentTracker PerecTracker.org
    
Регистрация  ·  Вход
 
 · 
Забыли пароль?

  • Семейное шоу / Le Family Show (Паскаль Ламани / Pascal Lahmani) [2013, Франция, комедия, DVB] Original (Fre) + Sub (Rus, Eng, Fre, Deu)

    Ответить на тему
     
    Автор Сообщение

    Light

    Создавать темы 06-Сен-2016 08:43

           

    [Цитировать]

    Семейное шоу
    Le Family Show-Страна: Франция
    Жанр: комедия
    Год выпуска: 2013
    Продолжительность: 01:34:23
    Перевод: Субтитры (перевод И.Рыбкиной, Éclair Media)
    Cубтитры: русские, английские, французские, немецкие, нидерландские
    Оригинальная аудиодорожка: французский
    Режиссер: Паскаль Ламани / Pascal LahmaniВ ролях: Фирмин Ришар / Firmine Richard (Hermeline Clement), Надеж Боссон-Диань / Nadège Beausson-Diagne (Marie-Aimée), Сирил Гуи / Cyril Guei (Omer), Азиз Дьябате Абдулай / Azize Diabaté Abdoulaye (Willy), Софи Монтьё / Sohée Monthieux (Khetty), Жаки Берруайе / Jackie Berroyer (Gérald), Карина Ломбард / Karina Lombard (Mayi)
    Описание: Две семьи борются за право участия и победу в региональном конкурсе талантов "Семейное шоу", намотря на то, что в их жизни только что произошли неординарные события: семья Риу сыграла свадьбу после 18 лет гражданского брака и при наличии двоих детей, а семья Клеман похоронила любимого и уважаемого всеми деда...
    Доп. информация: Hot Bird (13.0°E) TV5MONDE Europe DVB-S

    Качество видео: DVB
    Формат видео: MKV
    Видео: MPEG Video 2, 720x576@1024x576 (16:9), 25 fps, ~2979 kbps avg, 0.287 bit/pixel
    Аудио: MPEG Audio 2, 2 ch, 48 kHz, 192 kbps - французский
    Формат субтитров: softsub (SRT)

    Пример субтитров

    100:00:04,265 --> 00:00:06,134Семья Риу-Клеман.
    200:00:06,134 --> 00:00:09,134Очень хорошо. Прошу.
    300:00:29,461 --> 00:00:31,935Здравствуйте.
    400:00:31,935 --> 00:00:32,939Ты Жад?
    500:00:32,939 --> 00:00:35,939-Да.Иди сюда
    600:00:40,628 --> 00:00:43,628СЕМЕЙНОЕ ШОУ
    700:01:14,305 --> 00:01:16,74617 лет совместной жизни, 2 ребенка.
    800:01:16,746 --> 00:01:18,629А когда делал предложение,
    900:01:18,629 --> 00:01:21,629был похож на полростка.
    1000:01:21,864 --> 00:01:24,864Надо было отменить.
    1100:01:24,869 --> 00:01:27,234Испортить лучший деньв вашей жизни?
    1200:01:27,234 --> 00:01:30,234Да, но теперь годовщина свадьбыи похороны...
    1300:01:30,551 --> 00:01:33,434Ничего не поделаешь.
    1400:01:33,434 --> 00:01:36,304Жизнь продолжается.
    1500:01:36,304 --> 00:01:38,309Я забыла зеркало прикрыть!
    1600:01:38,309 --> 00:01:41,309-Чем прикрыть?-Белой тряпкой. Неважно чем.
    1700:01:41,309 --> 00:01:44,309Такова традиция.Это его любимый цвет.
    1800:01:46,145 --> 00:01:49,145-Не надо.-Надо.
    1900:01:55,356 --> 00:01:57,469Поможешь?
    2000:01:57,469 --> 00:02:00,469Мама, быстрее!Деда несут!

    MediaInfo

    GeneralUnique ID : 212806434647577026974944814230780969519 (0xA019074AC4609E03833F1C8BB027022F)Complete name : [apreder]Le_Family_Show(2013)DVB.mkvFormat : MatroskaFormat version : Version 2File size : 2.13 GiBDuration : 1 h 34 minOverall bit rate : 3 235 kb/sMovie name : Le Family ShowReleased date : 2013-00-00Encoded date : UTC 2016-09-04 15:20:02Writing application : mkvmerge v9.4.0 ('Knurl') 64bitWriting library : libebml v1.3.4 + libmatroska v1.4.5Cover : YesAttachments : cover.png / small_cover.pngACTOR : Firmine Richard, Nadиge Beausson-Diagne, Cyril GueiDIRECTOR : Pascal LahmaniGENRE : ComedyIMDB : tt5281940KEYWORDS : perectracker.orgLAW_RATING : 16+
    VideoID : 1Format : MPEG VideoFormat version : Version 2Format profile : Main@MainFormat settings, BVOP : YesFormat settings, Matrix : CustomFormat settings, GOP : M=4, N=12Format settings, picture structure : FrameCodec ID : V_MPEG2Codec ID/Info : MPEG 1 or 2 VideoDuration : 1 h 34 minBit rate : 2 979 kb/sMaximum bit rate : 3 200 kb/sWidth : 720 pixelsHeight : 576 pixelsDisplay aspect ratio : 16:9Frame rate mode : ConstantFrame rate : 25.000 FPSStandard : PALColor space : YUVChroma subsampling : 4:2:0Bit depth : 8 bitsScan type : InterlacedScan order : Top Field FirstCompression mode : LossyBits/(Pixel*Frame) : 0.287Stream size : 1.96 GiB (92%)Default : YesForced : No
    AudioID : 2Format : MPEG AudioFormat version : Version 1Format profile : Layer 2Mode : Joint stereoMode extension : Intensity Stereo + MS StereoCodec ID : A_MPEG/L2Codec ID/Hint : MP2Duration : 1 h 34 minBit rate mode : ConstantBit rate : 192 kb/sChannel(s) : 2 channelsSampling rate : 48.0 kHzCompression mode : LossyStream size : 130 MiB (6%)Language : FrenchDefault : YesForced : No
    Text #1ID : 3Format : UTF-8Codec ID : S_TEXT/UTF8Codec ID/Info : UTF-8 Plain TextLanguage : RussianDefault : NoForced : No
    Text #2ID : 4Format : UTF-8Codec ID : S_TEXT/UTF8Codec ID/Info : UTF-8 Plain TextLanguage : EnglishDefault : NoForced : No
    Text #3ID : 5Format : UTF-8Codec ID : S_TEXT/UTF8Codec ID/Info : UTF-8 Plain TextLanguage : FrenchDefault : NoForced : No
    Text #4ID : 6Format : UTF-8Codec ID : S_TEXT/UTF8Codec ID/Info : UTF-8 Plain TextLanguage : GermanDefault : NoForced : No
    Text #5ID : 7Format : UTF-8Codec ID : S_TEXT/UTF8Codec ID/Info : UTF-8 Plain TextLanguage : DutchDefault : NoForced : No

    Скриншот c названием фильма

    Скриншоты

    Резервные скриншоты


    -[3'261]
    Скачать .torrent

    Скачать торрент-файл бесплатно и на максимальной скорости!

    Как скачивать? · Что такое торрент? · Рейтинг и ограничения

    !ВНИМАНИЕ!
    Сайт не распространяет и не хранит электронные версии произведений, а занимается лишь лишь предоставлением доступа к создаваемому пользователями каталогу ссылок на торрент-файлы, которые содержат только списки хеш-сумм, убедительная просьба с жалобами обращаться напрямую к пользователю. Файлы для обмена на трекере предоставлены пользователями сайта, и администрация не несёт ответственности за их содержание. Просьба не заливать файлы, защищенные авторскими правами, а также файлы нелегального содержания!


    _________________
    [Профиль] [ЛС]
    Показать сообщения:    
    Ответить на тему

    Текущее время: Сегодня, в 04:11

    Часовой пояс: GMT + 2



    Вы не можете начинать темы
    Вы не можете отвечать на сообщения
    Вы не можете редактировать свои сообщения
    Вы не можете удалять свои сообщения
    Вы не можете голосовать в опросах
    Вы не можете прикреплять файлы к сообщениям
    Вы не можете скачивать файлы