BitTorrentTracker PerecTracker.org
BitTorrentTracker PerecTracker.org
    
Регистрация  ·  Вход
 
 · 
Забыли пароль?

  • Мои герои / Mes heros (Эрик Бенар / Eric Besnard) [2012, Франция, комедия, драма, DVB] DVO (НТВ+) + Original (Fre) + Sub (Rus, Eng, Fre, Deu)

    Ответить на тему
     
    Автор Сообщение

    Light

    Создавать темы 05-Сен-2016 20:08

           

    [Цитировать]

    Мои герои
    Mes héros-Страна: Франция
    Жанр: комедия, драма
    Год выпуска: 2012
    Продолжительность: 01:26:59Перевод: Профессиональный (двухголосый закадровый) (НТВ+, перевод Веры Смирновой, текст читают Ольга Кузнецова, Михаил Тихонов)
    Cубтитры: русские (перевод И.Рыбкиной, Eclair Media), английские, французские, немецкие, нидерландские
    Оригинальная аудиодорожка: французский
    Режиссер: Эрик Бенар / Éric Besnard
    В ролях: Жозиан Баласко / Josiane Balasko (Olga), Жерар Жюньо / Gérard Jugnot (Jacques), Кловис Корнийяк / Clovis Cornillac (Maxime), Пьер Ришар / Pierre Richard (Jean), Ибрахим Бурама Дарбо / Ibrahim Burama Darboe (Tiemoko)
    Описание: Женщина работает в центре помощи иммигрантам. Там она знакомится с чернокожим мальчиком, которого власти собираются депортировать из страны за нелегальный въезд. Добрая женщина решает помочь мальчику: она увозит его в свой загородный дом, где вместе со своим мужем окружает малыша материнской заботой и теплотой, которых ему так не хватает. (анонс канала "Премьера")
    Доп. информация: Hot Bird (13.0°E) TV5MONDE Europe DVB-S
    Участник Festival International du Cinéma Méditerranéen de Montpellier 2012; Festival du film français de Richmond 2013.

    Качество видео: DVB
    Формат видео: MKV
    Видео: MPEG Video 2, 720x576@1024x576 (16:9), 25 fps, ~2873 kbps avg, 0.277 bit/pixel
    Аудио 1: MPEG Audio 2, 2 ch, 48 kHz, 192 kbps - русский
    Аудио 2: MPEG Audio 2, 2 ch, 48 kHz, 192 kbps - французский
    Формат субтитров: softsub (SRT)

    MediaInfo

    GeneralUnique ID : 217040645015542254050932482168391496333 (0xA34881FB25BC7977BBE7D100C0A4728D)Complete name : [apreder]Mes_heros(2012)DVB.mkvFormat : MatroskaFormat version : Version 2File size : 2.02 GiBDuration : 1 h 26 minOverall bit rate : 3 323 kb/sMovie name : Mes hérosReleased date : 2012-12-12Encoded date : UTC 2016-09-05 15:15:57Writing application : mkvmerge v9.4.0 ('Knurl') 64bitWriting library : libebml v1.3.4 + libmatroska v1.4.5Cover : YesAttachments : cover.jpg / small_cover.jpgACTOR : Josiane Balasko, Gérard Jugnot, Clovis CornillacDIRECTOR : Éric BesnardGENRE : Comedy, DramaIMDB : tt2104062KEYWORDS : perectracker.orgLAW_RATING : 12+
    VideoID : 1Format : MPEG VideoFormat version : Version 2Format profile : Main@MainFormat settings, BVOP : YesFormat settings, Matrix : CustomFormat settings, GOP : M=4, N=12Format settings, picture structure : FrameCodec ID : V_MPEG2Codec ID/Info : MPEG 1 or 2 VideoDuration : 1 h 26 minBit rate : 2 873 kb/sMaximum bit rate : 3 200 kb/sWidth : 720 pixelsHeight : 576 pixelsDisplay aspect ratio : 16:9Frame rate mode : ConstantFrame rate : 25.000 FPSStandard : PALColor space : YUVChroma subsampling : 4:2:0Bit depth : 8 bitsScan type : InterlacedScan order : Top Field FirstCompression mode : LossyBits/(Pixel*Frame) : 0.277Stream size : 1.75 GiB (86%)Default : YesForced : No
    Audio #1ID : 2Format : MPEG AudioFormat version : Version 1Format profile : Layer 2Codec ID : A_MPEG/L2Codec ID/Hint : MP2Duration : 1 h 26 minBit rate mode : ConstantBit rate : 192 kb/sChannel(s) : 2 channelsSampling rate : 48.0 kHzCompression mode : LossyStream size : 119 MiB (6%)Language : RussianDefault : YesForced : No
    Audio #2ID : 3Format : MPEG AudioFormat version : Version 1Format profile : Layer 2Mode : Joint stereoMode extension : Intensity Stereo + MS StereoCodec ID : A_MPEG/L2Codec ID/Hint : MP2Duration : 1 h 26 minBit rate mode : ConstantBit rate : 192 kb/sChannel(s) : 2 channelsSampling rate : 48.0 kHzCompression mode : LossyStream size : 119 MiB (6%)Language : FrenchDefault : NoForced : No
    Text #1ID : 4Format : UTF-8Codec ID : S_TEXT/UTF8Codec ID/Info : UTF-8 Plain TextLanguage : RussianDefault : NoForced : No
    Text #2ID : 5Format : UTF-8Codec ID : S_TEXT/UTF8Codec ID/Info : UTF-8 Plain TextLanguage : EnglishDefault : NoForced : No
    Text #3ID : 6Format : UTF-8Codec ID : S_TEXT/UTF8Codec ID/Info : UTF-8 Plain TextLanguage : FrenchDefault : NoForced : No
    Text #4ID : 7Format : UTF-8Codec ID : S_TEXT/UTF8Codec ID/Info : UTF-8 Plain TextLanguage : GermanDefault : NoForced : No
    Text #5ID : 8Format : UTF-8Codec ID : S_TEXT/UTF8Codec ID/Info : UTF-8 Plain TextLanguage : DutchDefault : NoForced : No

    Скриншот c названием фильма

    Скриншоты

    Резервные скриншоты


    -[991]
    Скачать .torrent

    Скачать торрент-файл бесплатно и на максимальной скорости!

    Как скачивать? · Что такое торрент? · Рейтинг и ограничения

    !ВНИМАНИЕ!
    Сайт не распространяет и не хранит электронные версии произведений, а занимается лишь лишь предоставлением доступа к создаваемому пользователями каталогу ссылок на торрент-файлы, которые содержат только списки хеш-сумм, убедительная просьба с жалобами обращаться напрямую к пользователю. Файлы для обмена на трекере предоставлены пользователями сайта, и администрация не несёт ответственности за их содержание. Просьба не заливать файлы, защищенные авторскими правами, а также файлы нелегального содержания!


    _________________
    [Профиль] [ЛС]
    Показать сообщения:    
    Ответить на тему

    Текущее время: Сегодня, в 18:50

    Часовой пояс: GMT + 2



    Вы не можете начинать темы
    Вы не можете отвечать на сообщения
    Вы не можете редактировать свои сообщения
    Вы не можете удалять свои сообщения
    Вы не можете голосовать в опросах
    Вы не можете прикреплять файлы к сообщениям
    Вы не можете скачивать файлы