BitTorrentTracker PerecTracker.org
BitTorrentTracker PerecTracker.org
    
Регистрация  ·  Вход
 
 · 
Забыли пароль?

  • Вий (Александр Птушко, Георгий Кропачев, Константин Ершов) [1967, СССР, ужасы, фэнтези, драма, HDRip] [JPN Transfer]

    Ответить на тему
     
    Автор Сообщение

    Flirldrerve

    Создавать темы 05-Сен-2016 16:07

           

    [Цитировать]

    Вий
    Страна: СССР / Мосфильм
    Жанр: Ужасы, фэнтези, драма, экранизация
    Год выпуска: 1967
    Продолжительность: 01:16:51
    Режиссёр: Александр Птушко, Георгий Кропачев, Константин Ершов
    В ролях: Леонид Куравлёв, Наталья Варлей, Алексей Глазырин, Николай Кутузов, Вадим Захарченко, Пётр Вескляров, Владимир Сальников, Дмитрий Капка, Степан Шкурат, Георгий Сочевко, Николай Яковченко, Николай Панасьев, Маргарита Криницына, Борислав Брондуков, Николай Степанов, Александр Лебедев, Михаил Крамар, Дмитрий Орловский, Анна Павлова, Борис Веселов,Любовь Калюжная, Виктор Колпаков, Александра Денисова
    Описание: Фильм создан по одноименной повести великого русского писателя Николая Гоголя. Вий есть колоссальное создание простонародного воображения. Однажды при таинственных обстоятельствах с ним познакомился главный герой фильма семинарист Хома Брут. В селе умерла молодая панночка, а отпевать ее, отслужить по ней церковную службу выпало бедному Хоме. Панночка та была ведьмой. Вий, наместник дьявола на земле, тоже был рядом с покойницей… Его со свитой, состоящей из упырей и вурдалаков, Хома увидел в третью, самую страшную, ночь своей службы…..
    Рейтинг фильма : -- IMDB / 7,5
    Сэмпл: http://multi-up.com/1116685
    Качество видео: HDRip (Исходник Вий (1967) BDRip 720p / JPN Transfer)
    Формат видео: AVI
    Видео: XviD, 624x464, (4:3), 23,976 fps, 1050 Кбит/с, 8 бит
    Аудио: Русский (АС3, 2 ch (Front: L R), 48,0 KHz, 192 Kbps)

    MediaInfo

    Общее
    Полное имя : F:\Видеофильмы\В и д е о\Вий (Ужасы, фэнтези, драма 1967год).avi
    Формат : AVI
    Формат/Информация : Audio Video Interleave
    Размер файла : 743 Мбайт
    Продолжительность : 1 ч. 16 м.
    Общий поток : 1352 Кбит/сек
    Программа кодирования : VirtualDubMod 1.5.10.3 | www.virtualdub-fr.org || (build 2550/release)
    Библиотека кодирования : VirtualDubMod build 2550/release
    Видео
    Идентификатор : 0
    Формат : MPEG-4 Visual
    Профиль формата : Advanced Simple@L5
    Параметр BVOP формата : 2
    Параметр QPel формата : Нет
    Параметр GMC формата : Без точки перехода
    Параметр матрицы формата : Выборочная
    Идентификатор кодека : DX50
    Идентификатор кодека/Подсказка : DivX 5
    Продолжительность : 1 ч. 16 м.
    Битрейт : 1150 Кбит/сек
    Ширина : 624 пикселя
    Высота : 464 пикселя
    Соотношение сторон : 4:3
    Частота кадров : 23,976 (23976/1000) кадра/сек
    Цветовое пространство : YUV
    Субдискретизация насыщенности : 4:2:0
    Битовая глубина : 8 бит
    Тип развёртки : Прогрессивная
    Метод сжатия : С потерями
    Бит/(Пиксели*Кадры) : 0.166
    Размер потока : 632 Мбайт (85%)
    Библиотека кодирования : XviD 1.2.1 (UTC 2008-12-04)
    Аудио
    Идентификатор : 1
    Формат : AC-3
    Формат/Информация : Audio Coding 3
    Расширение режима : CM (complete main)
    Параметр Endianness формата : Big
    Идентификатор кодека : 2000
    Продолжительность : 1 ч. 16 м.
    Вид битрейта : Постоянный
    Битрейт : 192 Кбит/сек
    Каналы : 2 канала
    Расположение каналов : Front: L R
    Частота : 48,0 КГц
    Частота кадров : 31,250 кадров/сек (1536 spf)
    Метод сжатия : С потерями
    Размер потока : 106 Мбайт (14%)
    Выравнивание : Разделение по промежуткам
    Продолжительность промежутка : 42 мс. (1,00 видеокадр)
    Время предзагрузки промежутка : 500 мс.

    Скриншот c названием фильма

    Скриншоты

    Скачать .torrent

    Скачать торрент-файл бесплатно и на максимальной скорости!

    Как скачивать? · Что такое торрент? · Рейтинг и ограничения

    !ВНИМАНИЕ!
    Сайт не распространяет и не хранит электронные версии произведений, а занимается лишь лишь предоставлением доступа к создаваемому пользователями каталогу ссылок на торрент-файлы, которые содержат только списки хеш-сумм, убедительная просьба с жалобами обращаться напрямую к пользователю. Файлы для обмена на трекере предоставлены пользователями сайта, и администрация не несёт ответственности за их содержание. Просьба не заливать файлы, защищенные авторскими правами, а также файлы нелегального содержания!


    _________________
    [Профиль] [ЛС]

    -746

    Создавать темы 07-Сен-2016 11:26 (спустя 1 день 19 часов)

           

    Топік був перенесений з форуму Наше кино у форум Кино СССР

    rechyn

    _________________
    Как бы ты высоко не летал, не забывай, с кем ты ползал..
     
    Показать сообщения:    
    Ответить на тему

    Текущее время: Сегодня, в 06:30

    Часовой пояс: GMT + 2



    Вы не можете начинать темы
    Вы не можете отвечать на сообщения
    Вы не можете редактировать свои сообщения
    Вы не можете удалять свои сообщения
    Вы не можете голосовать в опросах
    Вы не можете прикреплять файлы к сообщениям
    Вы не можете скачивать файлы