BitTorrentTracker PerecTracker.org
BitTorrentTracker PerecTracker.org
    
Регистрация  ·  Вход
 
 · 
Забыли пароль?

  • Цветы Календулы (Сергей Снежкин) [1998, Драма, DVB, AVC]

    Ответить на тему
     
    Автор Сообщение

    Flirldrerve

    Создавать темы 05-Сен-2016 03:33

           

    [Цитировать]

    Цветы Календулы
    Жанр: Драма
    Год выпуска: 1998
    Продолжительность: 01:59:59
    Режиссёр: Сергей Снежкин
    В ролях: Эра Зиганшина, Марина Солопченко, Ксения Раппопорт, Юлия Шарикова, Герман Орлов, Сергей Донцов, Николай Лавров, Любовь Малиновская, Иван Краско, Александр Тютрюмов, Мустафа Абдинов, Александр Голутва
    Описание: На даче известного в прошлом писателя Георгия Протасова собираются члены его семьи: вдова мечтает увековечить память о муже и сделать из дачи музей, дочь размышляет о правильном, на их взгляд, использовании земли и жилья, а внучки просто хотят безбедно жить. Вдруг на пороге появляются незваные гости.
    Доп. информация: Запись потока *.ts со спутника EUTELSAT 36A/B, 36° в.д., ремукс в *.mkv программой VideoReDo.
    Качество видео: DVB
    Формат видео: MKV
    Видео: Advanced Video Codec, 720(768)x576 (4:3), 25,000 кадров/сек, 1 178 Кбит/сек
    Аудио: MPEG Audio, 48,0 КГц, 192 Кбит/сек, 2 канала

    MediaInfo

    General
    Unique ID : 216662864348976419313451709920253495027 (0xA2FFBFF4C50FDB302169CCFFB35EC6F3)
    Complete name : Z:\server\НАШЕ\ЦВЕТЫ КАЛЕНДУЛЫ (Любимое Кино).mkv
    Format : Matroska
    Format version : Version 2
    File size : 1.17 GiB
    Duration : 1h 59mn
    Overall bit rate : 1 398 Kbps
    Writing application : Lavf52.64.2
    Writing library : Lavf52.64.2
    Video
    ID : 1
    Format : AVC
    Format/Info : Advanced Video Codec
    Format profile : High@L3.0
    Format settings, CABAC : Yes
    Format settings, ReFrames : 4 frames
    Codec ID : V_MPEG4/ISO/AVC
    Duration : 1h 59mn
    Bit rate : 1 178 Kbps
    Width : 720 pixels
    Height : 576 pixels
    Display aspect ratio : 4:3
    Original display aspect ratio : 4:3
    Frame rate : 25.000 fps
    Standard : PAL
    Color space : YUV
    Chroma subsampling : 4:2:0
    Bit depth : 8 bits
    Scan type : Interlaced
    Scan order : Top Field First
    Bits/(Pixel*Frame) : 0.114
    Stream size : 1 011 MiB (84%)
    Default : Yes
    Forced : No
    Color primaries : BT.470-6 System B, BT.470-6 System G, BT.601-6 625, BT.1358 625, BT.1700 625 PAL, BT.1700 625 SECAM
    Transfer characteristics : BT.470-6 System B, BT.470-6 System G
    Matrix coefficients : BT.470-6 System B, BT.470-6 System G, BT.601-6 625, BT.1358 625, BT.1700 625 PAL, BT.1700 625 SECAM, IEC 61966-2-4 601
    Audio
    ID : 2
    Format : MPEG Audio
    Format version : Version 1
    Format profile : Layer 2
    Codec ID : A_MPEG/L2
    Codec ID/Hint : MP2
    Duration : 1h 59mn
    Bit rate mode : Constant
    Bit rate : 192 Kbps
    Channel(s) : 2 channels
    Sampling rate : 48.0 KHz
    Compression mode : Lossy
    Stream size : 165 MiB (14%)
    Language : Russian
    Default : Yes
    Forced : No

    Скриншот c названием фильма

    Скриншоты

    Скачать .torrent

    Скачать торрент-файл бесплатно и на максимальной скорости!

    Как скачивать? · Что такое торрент? · Рейтинг и ограничения

    !ВНИМАНИЕ!
    Сайт не распространяет и не хранит электронные версии произведений, а занимается лишь лишь предоставлением доступа к создаваемому пользователями каталогу ссылок на торрент-файлы, которые содержат только списки хеш-сумм, убедительная просьба с жалобами обращаться напрямую к пользователю. Файлы для обмена на трекере предоставлены пользователями сайта, и администрация не несёт ответственности за их содержание. Просьба не заливать файлы, защищенные авторскими правами, а также файлы нелегального содержания!


    _________________
    [Профиль] [ЛС]
    Показать сообщения:    
    Ответить на тему

    Текущее время: Сегодня, в 19:49

    Часовой пояс: GMT + 2



    Вы не можете начинать темы
    Вы не можете отвечать на сообщения
    Вы не можете редактировать свои сообщения
    Вы не можете удалять свои сообщения
    Вы не можете голосовать в опросах
    Вы не можете прикреплять файлы к сообщениям
    Вы не можете скачивать файлы