BitTorrentTracker PerecTracker.org
BitTorrentTracker PerecTracker.org
    
Регистрация  ·  Вход
 
 · 
Забыли пароль?

  • Золото / Gold (Ниал Хери / Niall Heery) [2014, Ирландия, драма, комедия, семейный, DVDRip-AVC] Sub (Rus, Eng) + Original (Eng)

    Ответить на тему
     
    Автор Сообщение

    Light

    Создавать темы 05-Сен-2016 03:33

           

    [Цитировать]

    Золото / Gold
    Страна: Ирландия
    Жанр: драма, комедия, семейный
    Год выпуска: 2014
    Продолжительность: 01:28:25
    Перевод: Субтитры
    Cубтитры: русские (Ifirf86), английские
    Оригинальная аудиодорожка: английский
    Режиссер: Ниал Хери / Niall Heery
    В ролях: Джеймс Несбитт, Мейси Уильямс, Дэвид Уилмот, Керри Кондон, Стивен Макинтош, Дэвид МакСавадж, Люси Паркер Бирн, Патрик Гибсон, Донал Хофи, Эдди Джексон
    Описание: 12 лет назад Рей покинул город после того, как его возлюбленная Элис бросила его и забрала с собой их дочь. Теперь он должен вернуться домой по просьбе его больного отца, который желает увидеть свою внучку, пока ещё не слишком поздно…
    Сэмпл: https://www.sendspace.com/file/u2w1mo
    Качество видео: DVDRip
    Формат видео: MKV
    Видео: AVC at 2000 Кбит/сек; 720x552@1024x552 (1.855) at 24.000 fps
    Аудио: AC-3 at 192 Кбит/сек; 6 каналов, 48,0 КГц
    Формат субтитров: softsub (SRT)

    MediaInfo

    Общее
    Уникальный идентификатор : 196804756852118900724157725928231367706 (0x940F37AA464D6204A46F8646CB69741A)
    Полное имя : D:\Перевод фильмов\Gold 2014\Niall Heery - (2014) Gold.mkv
    Формат : Matroska
    Версия формата : Version 2
    Размер файла : 1,35 Гбайт
    Продолжительность : 1 ч. 28 м.
    Общий поток : 2190 Кбит/сек
    Дата кодирования : UTC 2015-03-24 19:40:03
    Программа кодирования : mkvmerge v7.7.0 ('Six Voices') 32bit built on Feb 28 2015 23:23:00
    Библиотека кодирования : libebml v1.3.1 + libmatroska v1.4.2
    DURATION : 01:28:24.640000000
    NUMBER_OF_FRAMES : 165770
    NUMBER_OF_BYTES : 127311360
    _STATISTICS_WRITING_APP : mkvmerge v7.7.0 ('Six Voices') 32bit built on Feb 28 2015 23:23:00
    _STATISTICS_WRITING_DATE_UTC : 2015-03-24 19:40:03
    _STATISTICS_TAGS : BPS DURATION NUMBER_OF_FRAMES NUMBER_OF_BYTES
    Видео
    Идентификатор : 1
    Формат : AVC
    Формат/Информация : Advanced Video Codec
    Профиль формата : High@L3.1
    Параметр CABAC формата : Да
    Параметр ReFrames формата : 8 кадров
    Идентификатор кодека : V_MPEG4/ISO/AVC
    Продолжительность : 1 ч. 28 м.
    Битрейт : 2000 Кбит/сек
    Ширина : 720 пикселей
    Высота : 552 пикселя
    Соотношение сторон : 1,85:1
    Режим частоты кадров : Постоянный
    Частота кадров : 24,000 кадра/сек
    Цветовое пространство : YUV
    Субдискретизация насыщенности : 4:2:0
    Битовая глубина : 8 бит
    Тип развёртки : Прогрессивная
    Бит/(Пиксели*Кадры) : 0.210
    Размер потока : 1,21 Гбайт (89%)
    Библиотека кодирования : x264 core 146 r2538 121396c
    Настройки программы : cabac=1 / ref=8 / deblock=1:-3:-3 / analyse=0x3:0x133 / me=umh / subme=11 / psy=1 / psy_rd=1.00:0.15 / mixed_ref=1 / me_range=32 / chroma_me=1 / trellis=2 / 8x8dct=1 / cqm=0 / deadzone=21,11 / fast_pskip=0 / chroma_qp_offset=-3 / threads=12 / lookahead_threads=3 / sliced_threads=0 / nr=0 / decimate=0 / interlaced=0 / bluray_compat=0 / constrained_intra=0 / bframes=16 / b_pyramid=2 / b_adapt=2 / b_bias=0 / direct=3 / weightb=1 / open_gop=0 / weightp=2 / keyint=240 / keyint_min=24 / scenecut=40 / intra_refresh=0 / rc_lookahead=100 / rc=2pass / mbtree=0 / bitrate=2000 / ratetol=3.0 / qcomp=0.60 / qpmin=0 / qpmax=69 / qpstep=4 / cplxblur=20.0 / qblur=0.5 / vbv_maxrate=14000 / vbv_bufsize=14000 / nal_hrd=none / filler=0 / ip_ratio=1.40 / pb_ratio=1.30 / aq=1:1.00
    Язык : English
    Default : Да
    Forced : Нет
    DURATION : 01:28:25.084000000
    NUMBER_OF_FRAMES : 127322
    NUMBER_OF_BYTES : 1323573593
    _STATISTICS_WRITING_APP : mkvmerge v7.7.0 ('Six Voices') 32bit built on Feb 28 2015 23:23:00
    _STATISTICS_WRITING_DATE_UTC : 2015-03-24 19:40:03
    _STATISTICS_TAGS : BPS DURATION NUMBER_OF_FRAMES NUMBER_OF_BYTES
    Аудио
    Идентификатор : 2
    Формат : AC-3
    Формат/Информация : Audio Coding 3
    Расширение режима : CM (complete main)
    Параметр Endianness формата : Big
    Идентификатор кодека : A_AC3
    Продолжительность : 1 ч. 28 м.
    Вид битрейта : Постоянный
    Битрейт : 192 Кбит/сек
    Каналы : 6 каналов
    Расположение каналов : Front: L C R, Side: L R, LFE
    Частота : 48,0 КГц
    Битовая глубина : 16 бит
    Метод сжатия : С потерями
    Задержка видео : 300 мс.
    Размер потока : 121 Мбайт (9%)
    Default : Да
    Forced : Нет

    Скриншот c названием фильма

    Скриншоты

    Пример субтитров

    00:00:26,817 --> 00:00:29,116
    (ЭББИ) Обойдём сзади.
    2
    00:00:41,775 --> 00:00:45,568
    (ДЕВОН) Даже не знаю, Эбби. Уверена, что хочешь
    это сделать? Я начинаю нервничать.
    3
    00:00:45,733 --> 00:00:47,950
    - (ЭББИ) Конечно, уверена.
    - А если кто-то узнает?
    4
    00:00:48,108 --> 00:00:51,284
    Кому оно надо?
    И сними уже эту дурацкую шапку.
    5
    00:00:51,442 --> 00:00:54,404
    Я не хочу, чтобы он узнал меня.
    Знаешь, сколько проблем у нас потом может быть?
    6
    00:00:54,567 --> 00:00:55,953
    (ОТКРЫВАЕТСЯ ДВЕРЬ)
    7
    00:00:56,108 --> 00:00:57,495
    Вот, дерьмо, он идёт.
    8
    00:01:00,817 --> 00:01:02,784
    Ребята, это вы искали меня?
    9
    00:01:03,025 --> 00:01:04,411
    (ЭББИ)
    Э-э-э...
    10
    00:01:04,900 --> 00:01:08,776
    Мы слышали, у тебя есть кое-что,
    хм, что поможет бежать быстрее.
    11
    00:01:10,192 --> 00:01:12,325
    - Кто вам такое рассказал?
    - Брат Девона.
    12
    00:01:12,483 --> 00:01:13,870
    Не говори моё имя.
    13
    00:01:15,275 --> 00:01:17,278
    Ладно, у вас есть деньги?
    14
    00:01:27,358 --> 00:01:30,701
    Слушайте, я пойду и возьму это дерьмо.
    А вы подождите здесь.
    15
    00:01:30,858 --> 00:01:33,193
    Не на открытой местности. Идите, спрячьтесь.
    16
    00:01:34,317 --> 00:01:37,362
    - Где?
    - Я знаю, где. Может, вон там?
    17
    00:01:38,858 --> 00:01:40,696
    - Что, за ним?
    - Внутри него.
    18
    00:01:40,858 --> 00:01:44,118
    - Я не полезу в мусорный бак.
    - Здесь везде камеры.
    19
    00:01:44,275 --> 00:01:46,953
    Если мой босс увидит вас,
    он может что-то заподозрить.
    20
    00:01:47,108 --> 00:01:50,451
    - Я не вижу ни одной камеры.
    - Иисусе, просто делай то, что он говорит.
    Скачать .torrent

    Скачать торрент-файл бесплатно и на максимальной скорости!

    Как скачивать? · Что такое торрент? · Рейтинг и ограничения

    !ВНИМАНИЕ!
    Сайт не распространяет и не хранит электронные версии произведений, а занимается лишь лишь предоставлением доступа к создаваемому пользователями каталогу ссылок на торрент-файлы, которые содержат только списки хеш-сумм, убедительная просьба с жалобами обращаться напрямую к пользователю. Файлы для обмена на трекере предоставлены пользователями сайта, и администрация не несёт ответственности за их содержание. Просьба не заливать файлы, защищенные авторскими правами, а также файлы нелегального содержания!


    _________________
    [Профиль] [ЛС]
    Показать сообщения:    
    Ответить на тему

    Текущее время: Сегодня, в 08:12

    Часовой пояс: GMT + 2



    Вы не можете начинать темы
    Вы не можете отвечать на сообщения
    Вы не можете редактировать свои сообщения
    Вы не можете удалять свои сообщения
    Вы не можете голосовать в опросах
    Вы не можете прикреплять файлы к сообщениям
    Вы не можете скачивать файлы