BitTorrentTracker PerecTracker.org
BitTorrentTracker PerecTracker.org
    
Регистрация  ·  Вход
 
 · 
Забыли пароль?

  • Мальчики / Il etait une fois les boys (Ришар Гудро / Richard Goudreau) [2013, Канада, комедия, драма, мелодрама, DVB] Original (Fre) + Sub (Rus, Eng, Fre, Deu)

    Ответить на тему
     
    Автор Сообщение

    Light

    Создавать темы 05-Сен-2016 03:33

           

    [Цитировать]

    Мальчики
    Il était une fois les boys-Страна: Канада
    Жанр: комедия, драма, мелодрама
    Год выпуска: 2013
    Продолжительность: 01:42:11
    Перевод: Субтитры (перевод М.Лабори, Éclair Media)
    Cубтитры: русские, английские, французские, немецкие, нидерландские
    Оригинальная аудиодорожка: французский
    Режиссер: Ришар Гудро / Richard GoudreauВ ролях: Марк Мессье / Marc Messier (Denis Chicoine), Самюэль Готье / Samuel Gauthier (Robert 'Bob' Chicoine), Реми Жирар / Rémy Girard (Fred), Симон Пижон / Simon Pigeon (Stan Ouellet), Пьер Лебо / Pierre Lebeau (Jimmy), Максим Дежарден-Тремблэ / Maxime Desjardins-Tremblay (Roméo 'Méo' Levasseur), Люк Герен / Luc Guérin (Gérard Bilodeau), Дерек Пуассан / Derek Poissant (Marcel Bilodeau), Иван Понтон / Yvan Ponton (François Taillefert)
    Описание: В канун Рождества 1967 года подготовка к хоккейному турниру свела вместе и сдружила шестерых мальчиков: Стэна, Мео, Жан-Шарля, Марселя, Боба и Фернана. В то время, как их родители готовятся к празднику, решают проблемы брака и сексуальных домогательств на работе, молодые пареньки сплачиваются в настоящую команду...
    Доп. информация: Hot Bird (13.0°E) TV5MONDE Europe DVB-S
    Награда: номинация на премию "Жютра" 2014 Канадской Академии кино и телевидения за лучший стайлинг; 2 номинации Zlin International Film Festival for Children and Youth 2014 (приз "Золотая туфелька" за лучший полнометражный фильм для юношества, приз юношеского жюри за лучший фильм для юношества).

    Качество видео: DVB
    Формат видео: MKV
    Видео: MPEG Video 2, 720x576@1024x576 (16:9), 25 fps, ~2820 kbps avg, 0.272 bit/pixel
    Аудио: MPEG Audio 2, 2 ch, 48 kHz, 192 kbps - французский
    Формат субтитров: softsub (SRT)

    Пример субтитров

    100:00:08,270 --> 00:00:11,270Четверг, 21 декабря. Через 7 минутбудет 7 часов. Погода облачная,
    200:00:12,346 --> 00:00:15,346порошит снежок.Температура - минус 11 градусов.
    300:00:15,711 --> 00:00:18,711Вы слушаете радио Монреалядля людей от 12 до 80 лет.
    400:00:18,989 --> 00:00:21,989Через пару минутновости спорта изложит Роки Бризбуа.
    500:00:22,350 --> 00:00:25,350Вчера в Торонто канадцыодержали победу со счетом 5-0.
    600:00:25,711 --> 00:00:28,7113 гола забил капитан Боливо.Остальные - Серж Савар.
    700:00:29,071 --> 00:00:32,071Приближаются праздники.Ждите гостей и подарков.
    800:00:32,348 --> 00:00:35,307Желаю всем хорошего дня.Надеюсь, что Рождество
    900:00:35,307 --> 00:00:37,675станет для вас радостным,затейливым,
    1000:00:37,675 --> 00:00:40,675щедрым!
    1100:00:56,549 --> 00:00:59,511Каждое утро скатываешьсяс моей лестницы!
    1200:00:59,511 --> 00:01:02,270Установите лифт,г-н Бруйет!
    1300:01:02,270 --> 00:01:05,270Я тебе сейчас поддам как следует!
    1400:01:20,664 --> 00:01:23,434Поживей!Начало работы в 7 утра!
    1500:01:23,434 --> 00:01:25,584Готовься к вечернемупроигрышу.
    1600:01:25,584 --> 00:01:27,272Не беспокойся за меня.
    1700:01:27,272 --> 00:01:30,272Твоя команда победит,когда рак на горе свистнет!
    1800:01:30,467 --> 00:01:33,4673 раза с вами играли.Вы выигрывали с перевесом в 1 гол.
    1900:01:33,946 --> 00:01:36,396Рак скоро свистнет.
    2000:01:36,396 --> 00:01:38,548Не делите шкурунеубитого медведя.

    MediaInfo

    GeneralUnique ID : 183988792501787679786130162740184011506 (0x8A6AF3D674A8A35FB6805B31FA10D2F2)Complete name : [apreder]Il_etait_une_fois_les_boys(2013)DVB.mkvFormat : MatroskaFormat version : Version 2File size : 2.19 GiBDuration : 1 h 42 minOverall bit rate : 3 073 kb/sMovie name : Il йtait une fois les boysReleased date : 2013-12-06Encoded date : UTC 2016-09-03 16:56:35Writing application : mkvmerge v9.4.0 ('Knurl') 64bitWriting library : libebml v1.3.4 + libmatroska v1.4.5Cover : YesAttachments : cover.jpg / small_cover.jpgACTOR : Simon Pigeon, Derek Poissant, Samuel GauthierDIRECTOR : Richard GoudreauGENRE : ComedyIMDB : tt2747786KEYWORDS : perectracker.orgLAW_RATING : 16+
    VideoID : 1Format : MPEG VideoFormat version : Version 2Format profile : Main@MainFormat settings, BVOP : YesFormat settings, Matrix : CustomFormat settings, GOP : VariableFormat settings, picture structure : FrameCodec ID : V_MPEG2Codec ID/Info : MPEG 1 or 2 VideoDuration : 1 h 42 minBit rate : 2 820 kb/sMaximum bit rate : 3 200 kb/sWidth : 720 pixelsHeight : 576 pixelsDisplay aspect ratio : 16:9Frame rate mode : ConstantFrame rate : 25.000 FPSStandard : PALColor space : YUVChroma subsampling : 4:2:0Bit depth : 8 bitsScan type : InterlacedScan order : Top Field FirstCompression mode : LossyBits/(Pixel*Frame) : 0.272Stream size : 2.01 GiB (92%)Default : YesForced : No
    AudioID : 2Format : MPEG AudioFormat version : Version 1Format profile : Layer 2Codec ID : A_MPEG/L2Codec ID/Hint : MP2Duration : 1 h 42 minBit rate mode : ConstantBit rate : 192 kb/sChannel(s) : 2 channelsSampling rate : 48.0 kHzCompression mode : LossyStream size : 140 MiB (6%)Language : FrenchDefault : YesForced : No
    Text #1ID : 3Format : UTF-8Codec ID : S_TEXT/UTF8Codec ID/Info : UTF-8 Plain TextLanguage : RussianDefault : NoForced : No
    Text #2ID : 4Format : UTF-8Codec ID : S_TEXT/UTF8Codec ID/Info : UTF-8 Plain TextLanguage : EnglishDefault : NoForced : No
    Text #3ID : 5Format : UTF-8Codec ID : S_TEXT/UTF8Codec ID/Info : UTF-8 Plain TextLanguage : FrenchDefault : NoForced : No
    Text #4ID : 6Format : UTF-8Codec ID : S_TEXT/UTF8Codec ID/Info : UTF-8 Plain TextLanguage : GermanDefault : NoForced : No
    Text #5ID : 7Format : UTF-8Codec ID : S_TEXT/UTF8Codec ID/Info : UTF-8 Plain TextLanguage : DutchDefault : NoForced : No

    Скриншот c названием фильма

    Скриншоты

    Резервные скриншоты


    -[3'259]
    Скачать .torrent

    Скачать торрент-файл бесплатно и на максимальной скорости!

    Как скачивать? · Что такое торрент? · Рейтинг и ограничения

    !ВНИМАНИЕ!
    Сайт не распространяет и не хранит электронные версии произведений, а занимается лишь лишь предоставлением доступа к создаваемому пользователями каталогу ссылок на торрент-файлы, которые содержат только списки хеш-сумм, убедительная просьба с жалобами обращаться напрямую к пользователю. Файлы для обмена на трекере предоставлены пользователями сайта, и администрация не несёт ответственности за их содержание. Просьба не заливать файлы, защищенные авторскими правами, а также файлы нелегального содержания!


    _________________
    [Профиль] [ЛС]
    Показать сообщения:    
    Ответить на тему

    Текущее время: Сегодня, в 12:02

    Часовой пояс: GMT + 2



    Вы не можете начинать темы
    Вы не можете отвечать на сообщения
    Вы не можете редактировать свои сообщения
    Вы не можете удалять свои сообщения
    Вы не можете голосовать в опросах
    Вы не можете прикреплять файлы к сообщениям
    Вы не можете скачивать файлы