BitTorrentTracker PerecTracker.org
BitTorrentTracker PerecTracker.org
    
Регистрация  ·  Вход
 
 · 
Забыли пароль?

  • Зимний вечер в Гаграх (Карен Шахназаров) [1985, СССР, мелодрама, комедия, музыкальный, WEB-DLRip]

    Ответить на тему
     
    Автор Сообщение

    Flirldrerve

    Создавать темы 04-Сен-2016 12:12

           

    [Цитировать]

    Зимний вечер в Гаграх
    Выпущено: СССР
    Жанр: мелодрама, комедия, музыкальный
    Год выпуска: 1985
    Продолжительность: 01:25:08
    Cубтитры: нет
    Оригинальная аудиодорожка: русский-Режиссер: Карен Шахназаров-В ролях: Евгений Евстигнеев, Аркадий Насыров, Александр Панкратов-Чёрный, Наталья Гундарева, Сергей Никоненко, Пётр Щербаков, Светлана Аманова, Аня Иванова, Георгий Бурков, Александр Ширвиндт, Лилия Сабитова, Евгений Зернов, Владимир Кирсанов, Николай Аверюшкин-Описание: Стремительный ритм, виртуозная и озорная импровизация — вот что такое чечетка.. Главный герой фильма, некогда знаменитый чечеточник, кумир публики, живет ныне скромно и незаметно. Он репетитор танцев в эстрадном коллективе, где блещут иные «звезды»…
    И вдруг все меняется: к старому артисту словно возвращается молодость. Так подействовала на него встреча с несколько странным молодым человеком, который пришел со сломанной ногой и попросил, чтобы его ни много ни мало научили «бить степ»…-Качество видео: WEB-DLRip | WEB-DL 1080p -BLUEBIRD
    Формат видео: AVI
    Видео: 720x512 (1.41:1), 25 fps, XviD build 73 ~2257 kbps avg, 0.25 bit/pixel
    Аудио: 48 kHz, AC3 Dolby Digital, 2/0 (L,R) ch, ~192 kbps-

    MediaInfo

    Format                      : AVI
    Format/Info                 : Audio Video Interleave
    File size                   : 1.46 GiB
    Duration                    : 1 h 25 min
    Overall bit rate            : 2 460 kb/s
    Writing application         : VirtualDubMod 1.5.10.3 | www.virtualdub-fr.org || (build 2550/release)
    Writing library             : VirtualDubMod build 2550/release
    Video
    ID                          : 0
    Format                      : MPEG-4 Visual
    Format profile              : Advanced Simple@L5
    Format settings, BVOP       : 1
    Format settings, QPel       : No
    Format settings, GMC        : No warppoints
    Format settings, Matrix     : Custom
    Codec ID                    : XVID
    Codec ID/Hint               : XviD
    Duration                    : 1 h 25 min
    Bit rate                    : 2 258 kb/s
    Width                       : 720 pixels
    Height                      : 512 pixels
    Display aspect ratio        : 1.406
    Frame rate                  : 25.000 FPS
    Color space                 : YUV
    Chroma subsampling          : 4:2:0
    Bit depth                   : 8 bits
    Scan type                   : Progressive
    Compression mode            : Lossy
    Bits/(Pixel*Frame)          : 0.245
    Stream size                 : 1.34 GiB (92%)
    Writing library             : XviD 73
    Audio
    ID                          : 1
    Format                      : AC-3
    Format/Info                 : Audio Coding 3
    Mode extension              : CM (complete main)
    Format settings, Endianness : Big
    Codec ID                    : 2000
    Duration                    : 1 h 25 min
    Bit rate mode               : Constant
    Bit rate                    : 192 kb/s
    Channel(s)                  : 2 channels
    Channel positions           : Front: L R
    Sampling rate               : 48.0 kHz
    Frame rate                  : 31.250 FPS (1536 spf)
    Compression mode            : Lossy
    Stream size                 : 117 MiB (8%)
    Alignment                   : Split accross interleaves
    Interleave, duration        : 40  ms (1.00 video frame)
    Interleave, preload duratio : 500  ms

    Скриншоты

    Скачать .torrent

    Скачать торрент-файл бесплатно и на максимальной скорости!

    Как скачивать? · Что такое торрент? · Рейтинг и ограничения

    !ВНИМАНИЕ!
    Сайт не распространяет и не хранит электронные версии произведений, а занимается лишь лишь предоставлением доступа к создаваемому пользователями каталогу ссылок на торрент-файлы, которые содержат только списки хеш-сумм, убедительная просьба с жалобами обращаться напрямую к пользователю. Файлы для обмена на трекере предоставлены пользователями сайта, и администрация не несёт ответственности за их содержание. Просьба не заливать файлы, защищенные авторскими правами, а также файлы нелегального содержания!


    _________________
    [Профиль] [ЛС]

    -746

    Создавать темы 07-Сен-2016 11:34 (спустя 2 дня 23 часа)

           

    Топік був перенесений з форуму Наше кино у форум Кино СССР

    rechyn

    _________________
    Как бы ты высоко не летал, не забывай, с кем ты ползал..
     
    Показать сообщения:    
    Ответить на тему

    Текущее время: Сегодня, в 22:16

    Часовой пояс: GMT + 2



    Вы не можете начинать темы
    Вы не можете отвечать на сообщения
    Вы не можете редактировать свои сообщения
    Вы не можете удалять свои сообщения
    Вы не можете голосовать в опросах
    Вы не можете прикреплять файлы к сообщениям
    Вы не можете скачивать файлы