Register  ·  Log in
Forgot password?

  • Тайная жизнь домашних животных / The Secret Life of Pets (Ярроу Чейни / Yarrow Cheney, Крис Рено / Chris Renaud) [2016, Япония, США, Мультфильм, комедия, семейный, WEBRip] Dub

    Reply to topic
    Author Message


    Post 04-Sep-2016 13:12



    Тайная жизнь домашних животных / The Secret Life of Pets
    Страна: Япония, США
    Жанр: Мультфильм, комедия, семейный
    Продолжительность: 01:26:25
    Год выпуска: 2016
    Перевод: Профессиональный (дублированный) Line
    Субтитры: Корейские (на надписи)
    Режиссёр: Ярроу Чейни / Yarrow Cheney, Крис Рено / Chris Renaud
    Роли озвучивали: Луис С.К. (Max, озвучка), Эрик Стоунстрит (Duke, озвучка), Кевин Харт (Snowball, озвучка), Дженни Слейт (Gidget, озвучка), Элли Кемпер (Katie, озвучка), Альберт Брукс (Tiberius, озвучка), Лэйк Белл (Chloe, озвучка), Дэна Карви (Pops, озвучка), Хэннибал Бёресс (Buddy, озвучка), Бобби Мойнахан (Mel, озвучка), Крис Рено (Norman, озвучка), Стив Куган (Ozone / Reginald, озвучка)
    Описание: Что делают домашние животные пока хозяева пропадают на работе? С тоской смотрят в окно? Смиренно дремлют на коврике у двери? Как бы не так. Они ведут свою тайную жизнь.
    Релиз - Generalfilm (vsobbol)
    Качество: WEBRip (исх. 1080p.HDTV.LINE)
    Формат: AVI
    Видео: XviD build 73, 656x352 (2.40:1), 23.970 fps, 1064 Kbps (0.154 bit/pixel)
    Аудио: 48.0 kHz, MP3, 2/0 ch, 128 kbps

    Подробные технические данные

    GeneralComplete name : : AVIFormat/Info : Audio Video InterleaveFile size : 744 MiBDuration : 1h 26mnOverall bit rate : 1 204 KbpsWriting application : VirtualDubMod | || (build 2550/release)Writing library : VirtualDubMod build 2550/release
    VideoID : 0Format : MPEG-4 VisualFormat profile : Advanced Simple@L5Format settings, BVOP : 1Format settings, QPel : NoFormat settings, GMC : No warppointsFormat settings, Matrix : CustomCodec ID : XVIDCodec ID/Hint : XviDDuration : 1h 26mnBit rate : 1 064 KbpsWidth : 656 pixelsHeight : 352 pixelsDisplay aspect ratio : 1.85:1Frame rate : 29.970 (29970/1000) fpsColor space : YUVChroma subsampling : 4:2:0Bit depth : 8 bitsScan type : ProgressiveCompression mode : LossyBits/(Pixel*Frame) : 0.154Stream size : 658 MiB (88%)Writing library : XviD 73
    AudioID : 1Format : MPEG AudioFormat version : Version 1Format profile : Layer 3Codec ID : 55Codec ID/Hint : MP3Duration : 1h 26mnBit rate mode : ConstantBit rate : 128 KbpsChannel(s) : 2 channelsSampling rate : 48.0 KHzCompression mode : LossyStream size : 79.1 MiB (11%)Alignment : Aligned on interleavesInterleave, duration : 33 ms (1.00 video frame)Interleave, preload duratio : 504 msWriting library : LAME3.99rEncoding settings : -m s -V 4 -q 0 -lowpass 17 -b 128


    Download .torrent

    Download free and at maximum speed!

    How to Download? · What is a torrent? · Ratings and Limitations

    The site does not extend and does not store electronic(digital) versions of products, and only gives access to a reference catalogue created by users on torrent-files which contain only lists of the hash-sums, the earnest entreaty, with complaints(abuse) to access directly to the user. Files for an exchange on tracker are given by users of a site, and the administration does not bear the responsibility for their maintenance. The request to not fill in the files protected by copyrights, and also files of the illegal maintenance!

    [Profile] [PM]
    Display posts from previous:    
    Reply to topic

    The time now is: Today 14:58

    All times are GMT + 3 Hours

    You cannot post new topics in this forum
    You cannot reply to topics in this forum
    You cannot edit your posts in this forum
    You cannot delete your posts in this forum
    You cannot vote in polls in this forum
    You cannot attach files in this forum
    You cannot download files in this forum