BitTorrentTracker PerecTracker.org
BitTorrentTracker PerecTracker.org
    
Регистрация  ·  Вход
 
 · 
Забыли пароль?

  • Пленники Барсова ущелья / Հովազաձորի գերիները / Hovazadori gerinery (Юрий Ерзинкян) [1956, Детский, приключения, VHSRip]

    Ответить на тему
     
    Автор Сообщение

    Flirldrerve

    Создавать темы 03-Сен-2016 23:42

           

    [Цитировать]

    Пленники Барсова ущелья / Հ ո վ ա զ ա ձ ո ր ի գ ե ր ի ն ե ր ը / Hovazadori gerinery
    Жанр: Детский, приключения
    Страна: СССР
    Студия: Ереванская киностудия
    Год выпуска: 1956
    Продолжительность: 00:59:42.760 (89569 frames)
    Режиссёр: Юрий Ерзинкян
    В ролях:
    Роберт (Рубен) Мкртчян … Гагик
    Л.Ордоян … Шушик
    Юрий Хачатрян … Ашот
    Г.Ходжагорян … Авдал / Кават
    Араик Мкртумян … Саркис
    Ори (Израэл) Буниатян … Арутюн, председатель колхоза
    Гаруш (Карп) Хажакян … Арам, охотник, отец Ашота
    Ашот Нерсесян … Паруйр, отец Саркиса
    Описание: По одноименной повести Вахтанга Ананяна.
    Дни летних каникул. Увлечённый чтением книги Арсеньева о смелом охотнике Дерсу Узала, школьник Авдал опаздывает вернуться в кочевье пастухов, откуда его послали за провиантом. Друзья уговаривают Авдала переночевать, обещая проводить его. Утром пятеро ребят, Ашот, Шушик, Авдал, Гагик и Саркис, отправляются в путь. Саркис предлагает идти кратчайшим путём, через Барсово ущелье. Уверения Ашота, что в ущелье нет выхода, бурно отвергаются Саркисом. Друзья вступают на тропу, ведущую к ущелью. Внезапно налетевший буран разрушает мост, по которому ребята только что прошли. Вход в ущелье оказывается заваленным. Под ливнем, без еды и огня пятеро друзей становятся пленниками Барсова ущелья…
    Дополнительная информация: Релиз:
    Автор рипа: pmv
    Видео взято с раздачи Vanguard .
    Большое Спасибо за:
    - звуковую дорожку с русской озвучкой (советский дубляж) - Хорошему человеку
    - синхронизацию звука - pmv
    - афишу и фото - tokarevamarina
    * Видео - это немецкая копия фильма с названием - Die Gefangenen der Pantherschlucht . В Армении после перестройки сгорела вся фильмотека «Арменфильма». В нашем ГФФ копии нет (Это, правда, еще не значит, что в архиве фильм не сохранился. Причины отказа обычно три. Копия фильма в плохом, ветхом состоянии и не подлежит копированию. Фильм в архиве сохранился только в негативе, и печатать с неё копию - это очень большие деньги. Или третий вариант - фильм действительно утерян).
    [Информация взята с раздачи dimadima с ФЕНИКСа, который озвучил этот фильм, за что ему тоже спасибо.]
    * Поскольку титры фильма приведены на немецком языке, озвучка их взята с раздачи dimadima. Также начальная фраза фильма (после титров) дана в его же озвучке, из-за её отсутствия в профессиональном дубляже на русском языке.
    * Удивительный факт – эта, считающаяся до настоящего времени недоступной озвучка на русском языке (советский дубляж), представлена Вашему вниманию! Мы надеемся, что этот раритет вызовет у Вас понимание того, что чудеса иногда происходят, случаются.

    Качество видео: VHSRip
    Формат видео: AVI
    Видео: 720x544 (1.32:1), 25 fps, XviD build 50 ~1999 kbps avg, 0.20 bit/pixel
    Аудио: 48 kHz, AC3 Dolby Digital, 2/0 (L,R) ch, ~192.00 kbps avg

    MediaInfo

    General
    Complete name : D:\torrents\Plenniki-Barsova-ushchelya-1956.avi
    Format : AVI
    Format/Info : Audio Video Interleave
    File size : 940 MiB
    Duration : 59mn 42s
    Overall bit rate : 2 200 Kbps
    Writing application : VirtualDubModRus 1.5.10.2 (build 2542/release)
    Writing library : VirtualDubMod build 2542/release
    Video
    ID : 0
    Format : MPEG-4 Visual
    Format profile : Advanced Simple@L5
    Format settings, BVOP : 2
    Format settings, QPel : No
    Format settings, GMC : No warppoints
    Format settings, Matrix : Default (H.263)
    Codec ID : XVID
    Codec ID/Hint : XviD
    Duration : 59mn 42s
    Bit rate : 1 999 Kbps
    Width : 720 pixels
    Height : 544 pixels
    Display aspect ratio : 4:3
    Frame rate : 25.000 fps
    Color space : YUV
    Chroma subsampling : 4:2:0
    Bit depth : 8 bits
    Scan type : Progressive
    Compression mode : Lossy
    Bits/(Pixel*Frame) : 0.204
    Stream size : 854 MiB (91%)
    Writing library : XviD 1.2.1 (UTC 2008-12-04)
    Audio
    ID : 1
    Format : AC-3
    Format/Info : Audio Coding 3
    Mode extension : CM (complete main)
    Format settings, Endianness : Big
    Codec ID : 2000
    Duration : 59mn 28s
    Bit rate mode : Constant
    Bit rate : 192 Kbps
    Channel(s) : 2 channels
    Channel positions : Front: L R
    Sampling rate : 48.0 KHz
    Bit depth : 16 bits
    Compression mode : Lossy
    Stream size : 81.7 MiB (9%)
    Alignment : Split accross interleaves
    Interleave, duration : 40 ms (1.00 video frame)
    Interleave, preload duration : 500 ms

    Скриншот c названием фильма

    Скриншоты

    Скачать .torrent

    Скачать торрент-файл бесплатно и на максимальной скорости!

    Как скачивать? · Что такое торрент? · Рейтинг и ограничения

    !ВНИМАНИЕ!
    Сайт не распространяет и не хранит электронные версии произведений, а занимается лишь лишь предоставлением доступа к создаваемому пользователями каталогу ссылок на торрент-файлы, которые содержат только списки хеш-сумм, убедительная просьба с жалобами обращаться напрямую к пользователю. Файлы для обмена на трекере предоставлены пользователями сайта, и администрация не несёт ответственности за их содержание. Просьба не заливать файлы, защищенные авторскими правами, а также файлы нелегального содержания!


    _________________
    [Профиль] [ЛС]

    -746

    Создавать темы 07-Сен-2016 11:35 (спустя 3 дня)

           

    Топік був перенесений з форуму Наше кино у форум Детские отечественные фильмы

    rechyn

    _________________
    Как бы ты высоко не летал, не забывай, с кем ты ползал..
     
    Показать сообщения:    
    Ответить на тему

    Текущее время: Сегодня, в 10:16

    Часовой пояс: GMT + 2



    Вы не можете начинать темы
    Вы не можете отвечать на сообщения
    Вы не можете редактировать свои сообщения
    Вы не можете удалять свои сообщения
    Вы не можете голосовать в опросах
    Вы не можете прикреплять файлы к сообщениям
    Вы не можете скачивать файлы