BitTorrentTracker PerecTracker.org
BitTorrentTracker PerecTracker.org
    
Регистрация  ·  Вход
 
 · 
Забыли пароль?

  • Кингсглейв: Последняя фантазия XV / Kingsglaive: Final Fantasy XV (Такэси Нодзуэ / Takeshi Nozue ) [2016, Япония, Мультфильм, фантастика, фэнтези, драма, приключения, WEB-DL, HD (720p)] MVO + Original + sub (eng)

    Ответить на тему
     
    Автор Сообщение

    Flirldrerve

    Создавать темы 03-Сен-2016 23:42

           

    [Цитировать]

    Кингсглейв: Последняя фантазия XV / Kingsglaive: Final Fantasy XV
    -
    7.254 / 10 7.40 / 10
    -Год выпуска: 2016
    Страна: Япония
    Жанр: Мультфильм, фантастика, фэнтези, драма, приключения
    Продолжительность: 01:55:32
    Перевод: Многоголосый закадровый (iTunes)
    Оригинальная аудиодорожка: Есть
    Cубтитры: Английские
    Режиссёр: Такэси Нодзуэ
    Сценарий: Такаси Хасэгава
    Продюсер: Хадзимэ Табата
    Композитор: Джон Р. Грэм
    В ролях: Аарон Пол, Лина Хиди, Шон Бин, Нейл Ньюбон, Аманда Пиери, Джон Кэмплинг, Адриан Буше, Liam Mulvey, Андреа Тивадар, Грег Блэкфорд
    Мировая премьера: 9 июля 2016
    Описание: Волшебное королевство Люцис является домом для священного Кристалла, но враждебная империя Нифльхейм не остановится ни перед чем, чтобы захватить реликвию. Король Люциса Регис возглавляет элитный отряд солдат, именуемых «Кингсглейв». Вооружившись магией короля, Никс Ульрик и его верные товарищи из Кингсглейв становятся на защиту столицы Инсомния, чтобы остановить неумолимое наступление имперской армии. Перед превосходящими силами Нифльхейма Королю Регису ничего не остаётся, как согласиться на ультиматум, уступив все свои земли за пределами столицы и женив своего сына Ноктиса на Леди Лунафрее, бывшей принцессе ныне захваченной земли Тенебра. В разбушевавшейся войне махинации Нифльхейма превращают Инсомнию в грандиозное поле битвы, затягивая Никса в борьбу за выживание всего королевства.-Качество исходника: WEB-DL 720p (NNMClub)
    Качество: WEB-DL
    Тип: HD (720p)
    Контейнер: M4V
    Видео: H.264, 1280x530, 2.40:1, 4 035 Kbps, 23.976 fps
    Аудио 1: Русский/Многоголосый закадровый (iTunes), AAC / 2.0 / 160 Kbps / 48.0 KHz
    Аудио 2: Английский/Оригинальная дорожка , AAC / 2.0 / 160 Kbps / 48.0 KHz
    Аудио 3: Русский/Многоголосый закадровый (iTunes), AC-3 / 5.1 / 384 Kbps / 48.0 KHz
    Субтитры: Английские полные
    -

    iTunes Meta Tags

    Sort Name: Kingsglaive: Final Fantasy XV
    XID: Apple:vendor_id:2016-970742
    contentID: 1117616615
    Screenwriters: Такаси Хасэгава
    Producers: Хадзимэ Табата
    Director: Такэси Нодзуэ
    Cast: Аарон Пол, Лина Хиди, Шон Бин, Нейл Ньюбон, Аманда Пиери, Джон Кэмплинг, Адриан Буше, Liam Mulvey, Андреа Тивадар, Грег Блэкфорд
    Studio: Square Enix Company
    Rating: 4
    Long Description: Волшебное королевство Люцис является домом для священного Кристалла, но враждебная империя Нифльхейм не остановится ни перед чем, чтобы захватить реликвию. Король Люциса Регис возглавляет элитный отряд солдат, именуемых "Кингсглейв". Вооружившись магией короля, Никс Ульрик и его верные товарищи из Кингсглейв становятся на защиту столицы Инсомния, чтобы остановить неумолимое наступление имперской армии.
    Перед превосходящими силами Нифльхейма Королю Регису ничего не остаётся, как согласиться на ультиматум, уступив все свои земли за пределами столицы и женив своего сына Ноктиса на Леди Лунафрее, бывшей принцессе ныне захваченной земли Тенебра.
    В разбушевавшейся войне махинации Нифльхейма превращают Инсомнию в грандиозное поле битвы, затягивая Никса в борьбу за выживание всего королевства.
    Description: Волшебное королевство Люцис является домом для священного Кристалла, но враждебная империя Нифльхейм не остановится ни перед чем, чтобы захватить реликвию. Король Люциса Регис возглавляет элитный отряд солдат, именуемых "Кингсглейв". Вооружившись магией короля, Никс Ульрик и его верные товарищи из Кингсглейв становятся на защиту столицы Инсомния, чтобы остановить неумолимое наступление имперской армии.
    Release Date: 2016-07-09T08:00:00Z
    Genre: Action & Adventure
    Artist: Takeshi Nozue
    Name: Kingsglaive: Final Fantasy XV

    MediaInfo

    General
    Complete name : /Users/imac/HandBrake/Kingsglaive.Final.Fantasy.XV.WEB-DL.720p.m4v
    Format : MPEG-4
    Codec ID : M4V
    File size : 3.83 GiB
    Duration : 1h 55mn
    Overall bit rate mode : Variable
    Overall bit rate : 4 743 Kbps
    Movie name : Kingsglaive: Final Fantasy XV
    Performer : Takeshi Nozue
    Director : Такэси Нодзуэ
    Actor : Аарон Пол / Лина Хиди / Шон Бин / Нейл Ньюбон / Аманда Пиери / Джон Кэмплинг / Адриан Буше / Liam Mulvey / Андреа Тивадар / Грег Блэкфорд
    Screenplay by : Такаси Хасэгава
    Producer : Хадзимэ Табата
    Production studio : Square Enix Company
    Genre : Action & Adventure
    ContentType : Short Film
    Description : Волшебное королевство Люцис является домом для священного Кристалла, но враждебная империя Нифльхейм не остановится ни перед чем, чтобы захватить реликвию. Король Люциса Регис возглавляет элитный отряд солдат, именуемых "Кингсглейв". Вооружившись магией короля, Никс Ульрик и его верные товарищи из Кингсглейв становятся на защиту столицы Инсомния, чтобы остановить неумолимое наступление имперской армии.
    Recorded date : UTC 2016-07-09 08:00:00
    Encoded date : UTC 2016-09-03 19:54:10
    Tagged date : UTC 2016-09-03 19:55:17
    Cover : Yes
    Rating : None
    Title/Sort : Kingsglaive: Final Fantasy XV
    LongDescription : Волшебное королевство Люцис является домом для священного Кристалла, но враждебная империя Нифльхейм не остановится ни перед чем, чтобы захватить реликвию. Король Люциса Регис возглавляет элитный отряд солдат, именуемых "Кингсглейв". Вооружившись магией короля, Никс Ульрик и его верные товарищи из Кингсглейв становятся на защиту столицы Инсомния, чтобы остановить неумолимое наступление имперской армии. / Перед превосходящими силами Нифльхейма Королю Регису ничего не остаётся, как согласиться на ультиматум, уступив все свои земли за пределами столицы и женив своего сына Ноктиса на Леди Лунафрее, бывшей принцессе ныне захваченной земли Тенебра.  / В разбушевавшейся войне махинации Нифльхейма превращают Инсомнию в грандиозное поле битвы, затягивая Никса в борьбу за выживание всего королевства.
    HDVideo : Yes
    AppleStoreCatalogID : 1117616615
    Vendor : Apple:vendor_id:2016-970742
    ContentRating : mpaa|PG-13|300|
    Video #1
    ID : 1
    Format : AVC
    Format/Info : Advanced Video Codec
    Format profile : Main@L3.1
    Format settings, CABAC : No
    Format settings, ReFrames : 2 frames
    Codec ID : avc1
    Codec ID/Info : Advanced Video Coding
    Duration : 1h 55mn
    Bit rate : 4 035 Kbps
    Width : 1 280 pixels
    Height : 530 pixels
    Display aspect ratio : 2.40:1
    Frame rate mode : Variable
    Frame rate : 23.976 fps
    Minimum frame rate : 23.810 fps
    Maximum frame rate : 24.390 fps
    Color space : YUV
    Chroma subsampling : 4:2:0
    Bit depth : 8 bits
    Scan type : Progressive
    Bits/(Pixel*Frame) : 0.248
    Stream size : 3.26 GiB (85%)
    Title : Main Program
    Language : English
    Encoded date : UTC 2016-09-03 19:54:10
    Tagged date : UTC 2016-09-03 19:54:37
    Color range : Limited
    Color primaries : BT.709
    Transfer characteristics : BT.709
    Matrix coefficients : BT.709
    Video #2
    ID : 7
    Format : JPEG
    Codec ID : jpeg
    Duration : 1h 55mn
    Bit rate mode : Variable
    Bit rate : 716 bps
    Width : 640 pixels
    Height : 265 pixels
    Display aspect ratio : 2.40:1
    Frame rate mode : Variable
    Frame rate : 0.002 fps
    Minimum frame rate : 0.001 fps
    Maximum frame rate : 0.005 fps
    Color space : YUV
    Chroma subsampling : 4:2:0
    Bit depth : 8 bits
    Compression mode : Lossy
    Bits/(Pixel*Frame) : 2.111
    Stream size : 699 KiB (0%)
    Title : Chapter Images
    Language : English
    Encoded date : UTC 2016-09-03 19:54:42
    Tagged date : UTC 2016-09-03 19:54:42
    Audio #1
    ID : 2
    Format : AAC
    Format/Info : Advanced Audio Codec
    Format profile : LC
    Codec ID : 40
    Duration : 1h 55mn
    Bit rate mode : Variable
    Bit rate : 156 Kbps
    Maximum bit rate : 239 Kbps
    Channel(s) : 2 channels
    Channel positions : Front: L R
    Sampling rate : 48.0 KHz
    Compression mode : Lossy
    Stream size : 129 MiB (3%)
    Title : Russian Stereo
    Language : Russian
    Encoded date : UTC 2016-09-03 19:54:10
    Tagged date : UTC 2016-09-03 19:54:38
    Audio #2
    ID : 3
    Format : AAC
    Format/Info : Advanced Audio Codec
    Format profile : LC
    Codec ID : 40
    Duration : 1h 55mn
    Bit rate mode : Variable
    Bit rate : 157 Kbps
    Maximum bit rate : 250 Kbps
    Channel(s) : 2 channels
    Channel positions : Front: L R
    Sampling rate : 48.0 KHz
    Compression mode : Lossy
    Stream size : 130 MiB (3%)
    Title : English Stereo
    Language : English
    Encoded date : UTC 2016-09-03 19:54:10
    Tagged date : UTC 2016-09-03 19:54:38
    Audio #3
    ID : 4
    Format : AC-3
    Format/Info : Audio Coding 3
    Mode extension : CM (complete main)
    Format settings, Endianness : Big
    Codec ID : ac-3
    Duration : 1h 55mn
    Bit rate mode : Constant
    Bit rate : 384 Kbps
    Channel(s) : 6 channels
    Channel positions : Front: L C R, Side: L R, LFE
    Sampling rate : 48.0 KHz
    Bit depth : 16 bits
    Compression mode : Lossy
    Stream size : 317 MiB (8%)
    Title : Russian DD 5.1
    Language : Russian
    Encoded date : UTC 2016-09-03 19:54:10
    Tagged date : UTC 2016-09-03 19:54:38
    Text
    ID : 5
    Format : Timed Text
    Muxing mode : sbtl
    Codec ID : tx3g
    Duration : 1h 55mn
    Bit rate mode : Variable
    Bit rate : 53 bps
    Stream size : 44.8 KiB (0%)
    Title : English Full-length
    Language : English
    Encoded date : UTC 2016-09-03 19:54:10
    Tagged date : UTC 2016-09-03 19:54:38
    Menu #1
    00:00:00.000 : 1
    00:12:05.975 : 2
    00:15:47.529 : 3
    00:20:22.845 : 4
    00:25:40.996 : 5
    00:32:13.722 : 6
    00:39:01.212 : 7
    00:43:43.786 : 8
    00:50:05.292 : 9
    00:54:58.418 : 10
    01:02:12.518 : 11
    01:12:54.284 : 12
    01:20:59.227 : 13
    01:26:23.759 : 14
    01:37:17.370 : 15
    01:41:56.148 : 16
    Menu #2
    ID : 6
    Codec ID : text
    Duration : 1h 55mn
    Language : English
    Encoded date : UTC 2016-09-03 19:54:38
    Tagged date : UTC 2016-09-03 19:54:38
    00:00:00.000 : 1
    00:12:05.975 : 2
    00:15:47.529 : 3
    00:20:22.845 : 4
    00:25:40.996 : 5
    00:32:13.722 : 6
    00:39:01.212 : 7
    00:43:43.786 : 8
    00:50:05.292 : 9
    00:54:58.418 : 10
    01:02:12.518 : 11
    01:12:54.284 : 12
    01:20:59.227 : 13
    01:26:23.759 : 14
    01:37:17.370 : 15
    01:41:56.148 : 16
    Bit rate mode : VBR

    Скриншоты


    -

    Релиз подготовлен для просмотра на Apple TV, iPad, iPhone, iPod Touch.
    Для просмотра данного релиза на компьютере с ОС Windows рекомендуется использовать VLC media player
    Скачать .torrent

    Скачать торрент-файл бесплатно и на максимальной скорости!

    Как скачивать? · Что такое торрент? · Рейтинг и ограничения

    !ВНИМАНИЕ!
    Сайт не распространяет и не хранит электронные версии произведений, а занимается лишь лишь предоставлением доступа к создаваемому пользователями каталогу ссылок на торрент-файлы, которые содержат только списки хеш-сумм, убедительная просьба с жалобами обращаться напрямую к пользователю. Файлы для обмена на трекере предоставлены пользователями сайта, и администрация не несёт ответственности за их содержание. Просьба не заливать файлы, защищенные авторскими правами, а также файлы нелегального содержания!


    _________________
    [Профиль] [ЛС]
    Показать сообщения:    
    Ответить на тему

    Текущее время: Сегодня, в 02:29

    Часовой пояс: GMT + 2



    Вы не можете начинать темы
    Вы не можете отвечать на сообщения
    Вы не можете редактировать свои сообщения
    Вы не можете удалять свои сообщения
    Вы не можете голосовать в опросах
    Вы не можете прикреплять файлы к сообщениям
    Вы не можете скачивать файлы