BitTorrentTracker PerecTracker.org
BitTorrentTracker PerecTracker.org
    
Регистрация  ·  Вход
 
 · 
Забыли пароль?

  • Тайная жизнь домашних животных / The secret life of pets (Ярроу Чейни, Крис Рено) [2016, Япония, США, мультфильм, комедия, семейный, HDTVRip 1080p] Dub

    Ответить на тему
     
    Автор Сообщение

    Flirldrerve

    Создавать темы 03-Сен-2016 23:42

           

    [Цитировать]

    Тайная жизнь домашних животных / The secret life of pets
    Страна: Япония, США
    Жанр: мультфильм, комедия, семейный
    Продолжительность: 01:26:25
    Год выпуска: 2016
    Перевод: Профессиональный (дублированный) - Line
    Русские субтитры: нет
    Режиссёр: Ярроу Чейни/Yarrow Cheney, Крис Рено/ Chris Renaud
    Роли озвучивали: Луис С.К. (Max, озвучка), Эрик Стоунстрит (Duke, озвучка), Кевин Харт (Snowball, озвучка), Дженни Слейт (Gidget, озвучка), Элли Кемпер (Katie, озвучка), Альберт Брукс (Tiberius, озвучка), Лэйк Белл (Chloe, озвучка), Дэна Карви (Pops, озвучка), Хэннибал Бёресс (Buddy, озвучка), Бобби Мойнахан (Mel, озвучка), Крис Рено (Norman, озвучка), Стив Куган (Ozone / Reginald, озвучка
    Описание: Что делают домашние животные пока хозяева пропадают на работе? С тоской смотрят в окно? Смиренно дремлют на коврике у двери? Как бы не так. Они ведут свою тайную жизнь.
    Дополнительная информация: Релиз от: Работа со звуком: messafan / R.G. Resident
    За предоставленный исходник спасибо SergeyVideoGid
    Релиз без рекламы!
    Качество: WEBRip 1080p
    Формат: MKV
    Видео: AVC, 1920x1080 (16:9), 13399 kbps, 29,970 fps, 0,216 bpp
    Аудио: русский / AC3 / 2.0 / 48 kHz / 192 kbps / ||
    Субтитры: отсутствуют

    Подробные технические данные

    GeneralUnique ID : 206568786752901959004306345474941799294 (0x9B67B381BB9930E99473982B58644B7E)Complete name : E:UploadsThe.Secret.Life.of.Pets.2016.1080p.HDTV.DUB.LINE- СПАМFormat : MatroskaFormat version : Version 4 / Version 2File size : 8.37 GiBDuration : 1 h 26 minOverall bit rate mode : VariableOverall bit rate : 13.9 Mb/sMovie name : The Secret Life of Pets (2016) - release by messafan for pb.wtfEncoded date : UTC 2016-09-01 10:44:32Writing application : mkvmerge v6.7.0 ('Back to the Ground') 64bit built on Jan 8 2014 15:10:52Writing library : libebml v1.3.0 libmatroska v1.4.1
    VideoID : 1Format : AVCFormat/Info : Advanced Video CodecFormat profile : High@L4.1Format settings, CABAC : YesFormat settings, ReFrames : 1 frameFormat settings, GOP : M=1, N=30Codec ID : V_MPEG4/ISO/AVCDuration : 1 h 26 minBit rate mode : VariableBit rate : 13.4 Mb/sMaximum bit rate : 40.0 Mb/sWidth : 1 920 pixelsHeight : 1 080 pixelsDisplay aspect ratio : 16:9Frame rate mode : ConstantFrame rate : 29.970 (30000/1001) FPSColor space : YUVChroma subsampling : 4:2:0Bit depth : 8 bitsScan type : ProgressiveBits/(Pixel*Frame) : 0.216Stream size : 8.09 GiB (97%)Default : YesForced : NoColor range : LimitedColor primaries : BT.709Transfer characteristics : BT.709Matrix coefficients : BT.709
    AudioID : 2Format : AC-3Format/Info : Audio Coding 3Mode extension : CM (complete main)Format settings, Endianness : BigCodec ID : A_AC3Duration : 1 h 26 minBit rate mode : ConstantBit rate : 192 kb/sChannel(s) : 2 channelsChannel positions : Front: L RSampling rate : 48.0 kHzFrame rate : 31.250 FPS (1536 spf)Compression mode : LossyStream size : 119 MiB (1%)Title : DUB LINE DD2.0 @ 192kbpsLanguage : RussianDefault : YesForced : No

    Скриншоты




    Семпл

    Скачать .torrent

    Скачать торрент-файл бесплатно и на максимальной скорости!

    Как скачивать? · Что такое торрент? · Рейтинг и ограничения

    !ВНИМАНИЕ!
    Сайт не распространяет и не хранит электронные версии произведений, а занимается лишь лишь предоставлением доступа к создаваемому пользователями каталогу ссылок на торрент-файлы, которые содержат только списки хеш-сумм, убедительная просьба с жалобами обращаться напрямую к пользователю. Файлы для обмена на трекере предоставлены пользователями сайта, и администрация не несёт ответственности за их содержание. Просьба не заливать файлы, защищенные авторскими правами, а также файлы нелегального содержания!


    _________________
    [Профиль] [ЛС]

    -746

    Создавать темы 07-Сен-2016 07:26 (спустя 3 дня)

           

    Топик был перенесен из форума Иностранные мультфильмы в форум Иностранные мультфильмы (HD Video)


    vvmalysh

    _________________
    Как бы ты высоко не летал, не забывай, с кем ты ползал..
     
    Показать сообщения:    
    Ответить на тему

    Текущее время: Сегодня, в 08:48

    Часовой пояс: GMT + 2



    Вы не можете начинать темы
    Вы не можете отвечать на сообщения
    Вы не можете редактировать свои сообщения
    Вы не можете удалять свои сообщения
    Вы не можете голосовать в опросах
    Вы не можете прикреплять файлы к сообщениям
    Вы не можете скачивать файлы