Register  ·  Log in
Forgot password?

  • Тайная жизнь домашних животных / The secret life of pets (Ярроу Чейни, Крис Рено) [2016, Япония, США, мультфильм, комедия, семейный, HDTVRip 1080p] Dub

    Reply to topic
    Author Message


    Post 04-Sep-2016 00:42



    Тайная жизнь домашних животных / The secret life of pets
    Страна: Япония, США
    Жанр: мультфильм, комедия, семейный
    Продолжительность: 01:26:25
    Год выпуска: 2016
    Перевод: Профессиональный (дублированный) - Line
    Русские субтитры: нет
    Режиссёр: Ярроу Чейни/Yarrow Cheney, Крис Рено/ Chris Renaud
    Роли озвучивали: Луис С.К. (Max, озвучка), Эрик Стоунстрит (Duke, озвучка), Кевин Харт (Snowball, озвучка), Дженни Слейт (Gidget, озвучка), Элли Кемпер (Katie, озвучка), Альберт Брукс (Tiberius, озвучка), Лэйк Белл (Chloe, озвучка), Дэна Карви (Pops, озвучка), Хэннибал Бёресс (Buddy, озвучка), Бобби Мойнахан (Mel, озвучка), Крис Рено (Norman, озвучка), Стив Куган (Ozone / Reginald, озвучка
    Описание: Что делают домашние животные пока хозяева пропадают на работе? С тоской смотрят в окно? Смиренно дремлют на коврике у двери? Как бы не так. Они ведут свою тайную жизнь.
    Дополнительная информация: Релиз от: Работа со звуком: messafan / R.G. Resident
    За предоставленный исходник спасибо SergeyVideoGid
    Релиз без рекламы!
    Качество: WEBRip 1080p
    Формат: MKV
    Видео: AVC, 1920x1080 (16:9), 13399 kbps, 29,970 fps, 0,216 bpp
    Аудио: русский / AC3 / 2.0 / 48 kHz / 192 kbps / ||
    Субтитры: отсутствуют

    Подробные технические данные

    GeneralUnique ID : 206568786752901959004306345474941799294 (0x9B67B381BB9930E99473982B58644B7E)Complete name : E:UploadsThe.Secret.Life.of.Pets.2016.1080p.HDTV.DUB.LINE- СПАМFormat : MatroskaFormat version : Version 4 / Version 2File size : 8.37 GiBDuration : 1 h 26 minOverall bit rate mode : VariableOverall bit rate : 13.9 Mb/sMovie name : The Secret Life of Pets (2016) - release by messafan for pb.wtfEncoded date : UTC 2016-09-01 10:44:32Writing application : mkvmerge v6.7.0 ('Back to the Ground') 64bit built on Jan 8 2014 15:10:52Writing library : libebml v1.3.0 libmatroska v1.4.1
    VideoID : 1Format : AVCFormat/Info : Advanced Video CodecFormat profile : High@L4.1Format settings, CABAC : YesFormat settings, ReFrames : 1 frameFormat settings, GOP : M=1, N=30Codec ID : V_MPEG4/ISO/AVCDuration : 1 h 26 minBit rate mode : VariableBit rate : 13.4 Mb/sMaximum bit rate : 40.0 Mb/sWidth : 1 920 pixelsHeight : 1 080 pixelsDisplay aspect ratio : 16:9Frame rate mode : ConstantFrame rate : 29.970 (30000/1001) FPSColor space : YUVChroma subsampling : 4:2:0Bit depth : 8 bitsScan type : ProgressiveBits/(Pixel*Frame) : 0.216Stream size : 8.09 GiB (97%)Default : YesForced : NoColor range : LimitedColor primaries : BT.709Transfer characteristics : BT.709Matrix coefficients : BT.709
    AudioID : 2Format : AC-3Format/Info : Audio Coding 3Mode extension : CM (complete main)Format settings, Endianness : BigCodec ID : A_AC3Duration : 1 h 26 minBit rate mode : ConstantBit rate : 192 kb/sChannel(s) : 2 channelsChannel positions : Front: L RSampling rate : 48.0 kHzFrame rate : 31.250 FPS (1536 spf)Compression mode : LossyStream size : 119 MiB (1%)Title : DUB LINE DD2.0 @ 192kbpsLanguage : RussianDefault : YesForced : No



    Download .torrent

    Download free and at maximum speed!

    How to Download? · What is a torrent? · Ratings and Limitations

    The site does not extend and does not store electronic(digital) versions of products, and only gives access to a reference catalogue created by users on torrent-files which contain only lists of the hash-sums, the earnest entreaty, with complaints(abuse) to access directly to the user. Files for an exchange on tracker are given by users of a site, and the administration does not bear the responsibility for their maintenance. The request to not fill in the files protected by copyrights, and also files of the illegal maintenance!

    [Profile] [PM]


    Post 07-Sep-2016 08:26 (after 3 days)


    Топик был перенесен из форума Иностранные мультфильмы в форум Иностранные мультфильмы (HD Video)


    Как бы ты высоко не летал, не забывай, с кем ты ползал..
    Display posts from previous:    
    Reply to topic

    The time now is: Today 20:07

    All times are GMT + 3 Hours

    You cannot post new topics in this forum
    You cannot reply to topics in this forum
    You cannot edit your posts in this forum
    You cannot delete your posts in this forum
    You cannot vote in polls in this forum
    You cannot attach files in this forum
    You cannot download files in this forum