BitTorrentTracker PerecTracker.org
BitTorrentTracker PerecTracker.org
    
Регистрация  ·  Вход
 
 · 
Забыли пароль?

  • Он же Каракалла. Будни Сопротивления / Alias Caracalla, au coeur de la Resistance (Ален Тасма / Alain Tasma) [2013, Франция, историческая драма, экранизация, DVB] Original (Fre) + Sub (Rus, Fre)

    Ответить на тему
     
    Автор Сообщение

    Light

    Создавать темы 03-Сен-2016 19:30

           

    [Цитировать]

    Он же Каракалла. Будни Сопротивления
    Alias Caracalla, au coeur de la Résistance-Страна: Франция
    Жанр: историческая драма, экранизация
    Год выпуска: 2013
    Продолжительность: 03:00:23 (01:32:40 + 01:27:43)Перевод: Субтитры (перевод М.Лабори, Е.Маньен, Éclair Group)
    Cубтитры: русские, французские
    Оригинальная аудиодорожка: французский
    Режиссер: Ален Тасма / Alain Tasma
    В ролях: Жюль Садуги / Jules Sadoughi (Alain), Эрик Каравака / Éric Caravaca (Rex), Жан-Мишель Фет / Jean-Michel Fête (Charvet), Гийом Марке / Guillaume Marquet (Colonel Passy), Жеральдин Мартино / Géraldine Martineau (Mado), Венсан Лонд / Vincent Londez (Capitaine Georges), Грегори Гадебуа / Grégory Gadebois (Léo), Жюли Гайе / Julie Gayet (Mme Moret), Лео-Поль Сальмен / Léo-Paul Salmain (François Briant), Лу де Лааж / Lou de Laâge (Suzette), Лоран Капеллуто / Laurent Capelluto (Raymond Aroti), Тьерри Анкисс / Thierry Hancisse (Bessonneau), Лоран Стокер / Laurent Stocker (Brumaire)
    Описание: По автобиографическому роману Даниэля Кордье / Daniel Cordier "Он же Каракалла / Alias Caracalla" (2009), удостоенному престижных французских литературных наград: премии Ренодо и премии Сопротивления.
    Во время Второй Мировой войны во Франции был свой Rex (в переводе с латыни — король). Под этой кличкой известен один из выдающихся деятелей французского Сопротивления — Жан Мулен, герой и патриот, лидер партизанского движения. Даниэль Кордье, он же Каракалла, был секретарем Мулена во время его службы в Сопротивлении, и сумел донести до нас великолепно выполненное описание этого легендарного человека, исторически правдивое и чрезвычайно интересное. (sapronau)
    Доп. информация: Hot Bird (13.0°E) TV5MONDE Europe DVB-S. 2-х-серийный телефильм.

    Качество видео: DVB
    Формат видео: MKV
    Видео: MPEG Video 2, 720x576@1024x576 (16:9), 25 fps, ~2902 kbps avg, 0.280 bit/pixel
    Аудио: MPEG Audio 2, 2 ch, 48 kHz, 192 kbps - французский
    Формат субтитров: softsub (SRT)

    Пример субтитров

    100:00:13,318 --> 00:00:18,462ОН ЖЕ КАРАКАЛЛАБудни Сопротивления
    200:00:24,120 --> 00:00:27,302 Часть первая
    300:00:41,640 --> 00:00:43,799 Покупайте "Аксьон Франсез"!
    400:00:46,120 --> 00:00:49,359 Филипп! Где тебя носит?Мы все-распродали!
    500:00:49,560 --> 00:00:53,999 Фрицам Францию не поработить!
    600:00:54,200 --> 00:00:56,959 Хорошо берут. Петен открыл им глаза.
    700:00:57,160 --> 00:00:58,879 Фрицам Францию не поработить!
    800:00:59,040 --> 00:01:00,879 Покупайте "Аксьон Франсез"!
    900:01:02,120 --> 00:01:03,599 Дайте один экземпляр.
    1000:01:03,760 --> 00:01:06,239 Молодцы! Все бы так себя вели.
    I I I
    1100:01:06,400 --> 00:01:09,639 Мы их убедим. Молодые должны поддержать Петена.
    1200:01:09,840 --> 00:01:12,399Он - залог нашей победы.- Дай-то Бог!
    1300:01:12,560 --> 00:01:14,199 Покупайте "Аксьон Франсез"!
    1400:01:14,360 --> 00:01:17,599 Долой бациллу демократии! Покупайте "Аксьон Франсез"!
    1500:01:18,160 --> 00:01:20,999 Демократия плевать на тебя хотела!
    1600:01:21,160 --> 00:01:23,119 Все выпредатели родины
    1700:01:23,480 --> 00:01:24,359 Фашист...
    1800:01:24,760 --> 00:01:27,439 Маршал покажет вам, где раки зимуют.
    1900:01:27,640 --> 00:01:30,279 Всех жидов и полукровок за решетку посадит.
    2000:01:30,480 --> 00:01:33,159 Что-что вы с жидамисделаете?

    MediaInfo

    GeneralUnique ID : 243940646945171895877605174939913038526 (0xB78542791C2125E784ED5534FE702ABE)Complete name : [apreder]Alias_Caracalla_Pt.1(2013)DVB.mkvFormat : MatroskaFormat version : Version 2File size : 2.04 GiBDuration : 1 h 32 minOverall bit rate : 3 157 kb/sMovie name : Alias Caracalla, au coeur de la RésistanceReleased date : 2013-05-25Encoded date : UTC 2016-09-03 12:50:05Writing application : mkvmerge v9.4.0 ('Knurl') 64bitWriting library : libebml v1.3.4 + libmatroska v1.4.5ACTOR : Jules Sadoughi, Éric Caravaca, Nicolas MariéDIRECTOR : Alain TasmaGENRE : Drama, WarIMDB : tt2955196KEYWORDS : perectracker.orgLAW_RATING : 16+SUMMARY : Pt.1 Les rebelles du 17 juin
    VideoID : 1Format : MPEG VideoFormat version : Version 2Format profile : Main@MainFormat settings, BVOP : YesFormat settings, Matrix : CustomFormat settings, GOP : M=4, N=12Format settings, picture structure : FrameCodec ID : V_MPEG2Codec ID/Info : MPEG 1 or 2 VideoDuration : 1 h 32 minBit rate : 2 902 kb/sMaximum bit rate : 3 200 kb/sWidth : 720 pixelsHeight : 576 pixelsDisplay aspect ratio : 16:9Frame rate mode : ConstantFrame rate : 25.000 FPSStandard : PALColor space : YUVChroma subsampling : 4:2:0Bit depth : 8 bitsScan type : InterlacedScan order : Top Field FirstCompression mode : LossyBits/(Pixel*Frame) : 0.280Stream size : 1.88 GiB (92%)Default : YesForced : No
    AudioID : 2Format : MPEG AudioFormat version : Version 1Format profile : Layer 2Mode : Joint stereoMode extension : Intensity Stereo + MS StereoCodec ID : A_MPEG/L2Codec ID/Hint : MP2Duration : 1 h 32 minBit rate mode : ConstantBit rate : 192 kb/sChannel(s) : 2 channelsSampling rate : 48.0 kHzCompression mode : LossyDelay relative to video : 105 msStream size : 127 MiB (6%)Language : FrenchDefault : YesForced : No
    Text #1ID : 3Format : UTF-8Codec ID : S_TEXT/UTF8Codec ID/Info : UTF-8 Plain TextLanguage : RussianDefault : NoForced : No
    Text #2ID : 4Format : UTF-8Codec ID : S_TEXT/UTF8Codec ID/Info : UTF-8 Plain TextLanguage : FrenchDefault : NoForced : No

    Скриншот c названием фильма

    Скриншоты


    Резервные скриншоты


    -[1'193]
    Скачать .torrent

    Скачать торрент-файл бесплатно и на максимальной скорости!

    Как скачивать? · Что такое торрент? · Рейтинг и ограничения

    !ВНИМАНИЕ!
    Сайт не распространяет и не хранит электронные версии произведений, а занимается лишь лишь предоставлением доступа к создаваемому пользователями каталогу ссылок на торрент-файлы, которые содержат только списки хеш-сумм, убедительная просьба с жалобами обращаться напрямую к пользователю. Файлы для обмена на трекере предоставлены пользователями сайта, и администрация не несёт ответственности за их содержание. Просьба не заливать файлы, защищенные авторскими правами, а также файлы нелегального содержания!


    _________________
    [Профиль] [ЛС]
    Показать сообщения:    
    Ответить на тему

    Текущее время: Сегодня, в 22:25

    Часовой пояс: GMT + 2



    Вы не можете начинать темы
    Вы не можете отвечать на сообщения
    Вы не можете редактировать свои сообщения
    Вы не можете удалять свои сообщения
    Вы не можете голосовать в опросах
    Вы не можете прикреплять файлы к сообщениям
    Вы не можете скачивать файлы