BitTorrentTracker PerecTracker.org
BitTorrentTracker PerecTracker.org
    
Регистрация  ·  Вход
 
 · 
Забыли пароль?

  • Эффект Скопии / The Scopia Effect (Кристофер Батлер / Christopher Butler) [2014, Великобритания, ужасы, фантастика, триллер, WEB-DLRip] MVO

    Ответить на тему
     
    Автор Сообщение

    Light

    Создавать темы 03-Сен-2016 15:18

           

    [Цитировать]

    Эффект Скопии / The Scopia Effect«Death Should Be A Once in a Life Time Experience»Страна: Великобритания
    Жанр: ужасы, фантастика, триллер
    Год выпуска: 2014
    Продолжительность: 01:43:12
    Перевод: Любительский (многоголосый закадровый)
    Cубтитры: нет
    Оригинальная аудиодорожка: нет
    Режиссер: Кристофер Батлер / Christopher Butler
    В ролях: Джоанна Игначевска, Луис Лабович, Акира Койеяма, Женевьёв Сибаян, Джессика Джей, Харука Абе, Морган Экерманн, Буки Анифово,з Йозеф Аоки, Энтони Гопол
    Описание: Реинкарнация может пойти неправильно и выпустить темные и разрушительные силы. Баша, мать которой погибла в детстве у нее на глазах, нежданно для себя обретает просветление и вспоминает прошлые жизни. Но сможет ли неподготовленный ум девушки справиться с бесконечной чередой смертей своих инкарнаций? Ее прошлые жизни сливаются с настоящим, реальность искажается и превращается в настоящий кошмар, где девушка вынуждена бороться за существование.
    Сэмпл: http://multi-up.com/1116148
    Качество видео: WEB-DLRip / WEB-DL 1080р
    Формат видео: AVI
    Видео: 720x304 (2.37:1), 25 fps, XviD build 65 ~1631 kbps avg, 0.30 bit/pixel
    Аудио RUS: 48 kHz, AC3 Dolby Digital, 3/2 (L,C,R,l,r) + LFE ch, ~384 kbps
    Rip by Ториял для

    MediaInfo

    Format : AVI
    Format/Info : Audio Video Interleave
    File size : 1.46 GiB
    Duration : 1h 43mn
    Overall bit rate : 2 026 Kbps
    Writing application : VirtualDubMod 1.5.10.3 | www.virtualdub-fr.org || (build 2550/release)
    Writing library : VirtualDubMod build 2550/release
    Video
    ID : 0
    Format : MPEG-4 Visual
    Format profile : Advanced Simple@L5
    Format settings, BVOP : 1
    Format settings, QPel : No
    Format settings, GMC : No warppoints
    Format settings, Matrix : Custom
    Codec ID : XVID
    Codec ID/Hint : XviD
    Duration : 1h 43mn
    Bit rate : 1 632 Kbps
    Width : 720 pixels
    Height : 304 pixels
    Display aspect ratio : 2.35:1
    Frame rate : 25.000 fps
    Color space : YUV
    Chroma subsampling : 4:2:0
    Bit depth : 8 bits
    Scan type : Progressive
    Compression mode : Lossy
    Bits/(Pixel*Frame) : 0.298
    Stream size : 1.18 GiB (81%)
    Writing library : XviD 65
    Audio
    ID : 1
    Format : AC-3
    Format/Info : Audio Coding 3
    Mode extension : CM (complete main)
    Format settings, Endianness : Big
    Codec ID : 2000
    Duration : 1h 43mn
    Bit rate mode : Constant
    Bit rate : 384 Kbps
    Channel(s) : 6 channels
    Channel positions : Front: L C R, Side: L R, LFE
    Sampling rate : 48.0 KHz
    Frame rate : 31.250 fps (1536 spf)
    Compression mode : Lossy
    Stream size : 283 MiB (19%)
    Alignment : Split accross interleaves
    Interleave, duration : 40 ms (1.00 video frame)
    Interleave, preload duratio : 500 ms

    Скриншоты

    Скачать .torrent

    Скачать торрент-файл бесплатно и на максимальной скорости!

    Как скачивать? · Что такое торрент? · Рейтинг и ограничения

    !ВНИМАНИЕ!
    Сайт не распространяет и не хранит электронные версии произведений, а занимается лишь лишь предоставлением доступа к создаваемому пользователями каталогу ссылок на торрент-файлы, которые содержат только списки хеш-сумм, убедительная просьба с жалобами обращаться напрямую к пользователю. Файлы для обмена на трекере предоставлены пользователями сайта, и администрация не несёт ответственности за их содержание. Просьба не заливать файлы, защищенные авторскими правами, а также файлы нелегального содержания!


    _________________
    [Профиль] [ЛС]
    Показать сообщения:    
    Ответить на тему

    Текущее время: Сегодня, в 18:22

    Часовой пояс: GMT + 2



    Вы не можете начинать темы
    Вы не можете отвечать на сообщения
    Вы не можете редактировать свои сообщения
    Вы не можете удалять свои сообщения
    Вы не можете голосовать в опросах
    Вы не можете прикреплять файлы к сообщениям
    Вы не можете скачивать файлы