Register  ·  Log in
Forgot password?

  • 30 свиданий (Татьяна Капитан) [2015, Россия, комедия, мелодрама, WEB-DLRip]

    Reply to topic
    Author Message


    Post 02-Sep-2016 23:31



    30 свиданий«Парней много не бывает»-Жанр: комедия, мелодрама
    Год выпуска: 2015
    Продолжительность: 01:28:36-Режиссер: Татьяна Капитан-В ролях: Наталия Медведева, Никита Панфилов, Дмитрий Богдан, Сергей Аброскин, Ирина Гринёва, Данила Якушев, Гарик Харламов, Никита Джигурда, Сергей Баталов, Ольга Тумайкина-Описание: На что только не пойдешь, чтобы обрести счастье?! Невезучая Даша верит в найденный в интернете способ — в течение месяца сходить на 30 свиданий, а затем мужчина твоей мечты сам найдет тебя. Только остаться бы живой после встреч с самыми безумными кавалерами и пробовать разглядеть среди них того самого.-Скачать: Сэмпл--Релиз от: -Автор рипа: Yarmak23-Качество видео: WEB-DLRip |исх. / WEB-DL 1080p |
    Формат видео: AVI
    Видео: 720x304 (2.35:1), 25.000 fps, XviD 65 ~1035 kbps avg, 0.189 bit/pixel
    Аудио: 48 kHz, MPEG Layer 3, 2/0 (L,R) ch, 128.00 kbps Constant |Оригинал|-


    Complete name :
    Format : AVI
    Format/Info : Audio Video Interleave
    File size : 743 MiB
    Duration : 1h 28mn
    Overall bit rate : 1 172 Kbps
    Writing application : VirtualDubMod | || (build 2550/release)
    Writing library : VirtualDubMod build 2550/release
    ID : 0
    Format : MPEG-4 Visual
    Format profile : Advanced Simple@L5
    Format settings, BVOP : 1
    Format settings, QPel : No
    Format settings, GMC : No warppoints
    Format settings, Matrix : Custom
    Codec ID : XVID
    Codec ID/Hint : XviD
    Duration : 1h 28mn
    Bit rate : 1 035 Kbps
    Width : 720 pixels
    Height : 304 pixels
    Display aspect ratio : 2.35:1
    Frame rate : 25.000 fps
    Color space : YUV
    Chroma subsampling : 4:2:0
    Bit depth : 8 bits
    Scan type : Progressive
    Compression mode : Lossy
    Bits/(Pixel*Frame) : 0.189
    Stream size : 656 MiB (88%)
    Writing library : XviD 65
    ID : 1
    Format : MPEG Audio
    Format version : Version 1
    Format profile : Layer 3
    Codec ID : 55
    Codec ID/Hint : MP3
    Duration : 1h 28mn
    Bit rate mode : Constant
    Bit rate : 128 Kbps
    Channel(s) : 2 channels
    Sampling rate : 48.0 KHz
    Compression mode : Lossy
    Stream size : 81.1 MiB (11%)
    Alignment : Aligned on interleaves
    Interleave, duration : 40 ms (1.00 video frame)
    Interleave, preload duration : 504 ms
    Writing library : LAME3.99r
    Encoding settings : -m s -V 4 -q 2 -lowpass 17 -b 128


    Download .torrent

    Download free and at maximum speed!

    How to Download? · What is a torrent? · Ratings and Limitations

    The site does not extend and does not store electronic(digital) versions of products, and only gives access to a reference catalogue created by users on torrent-files which contain only lists of the hash-sums, the earnest entreaty, with complaints(abuse) to access directly to the user. Files for an exchange on tracker are given by users of a site, and the administration does not bear the responsibility for their maintenance. The request to not fill in the files protected by copyrights, and also files of the illegal maintenance!

    [Profile] [PM]
    Display posts from previous:    
    Reply to topic

    The time now is: Today 11:35

    All times are GMT + 3 Hours

    You cannot post new topics in this forum
    You cannot reply to topics in this forum
    You cannot edit your posts in this forum
    You cannot delete your posts in this forum
    You cannot vote in polls in this forum
    You cannot attach files in this forum
    You cannot download files in this forum