BitTorrentTracker PerecTracker.org
BitTorrentTracker PerecTracker.org
    
Регистрация  ·  Вход
 
 · 
Забыли пароль?

  • Капитан Фантастик / Captain Fantastic (Мэтт Росс / Matt Ross ) [2016, США, Драма, мелодрама, комедия, WEB-DL, HD (720p)] MVO

    Ответить на тему
     
    Автор Сообщение

    rechyn

    Создавать темы 02-Сен-2016 22:31

           

    [Цитировать]

    Капитан Фантастик / Captain Fantastic
    «Он подготовил их ко всему, кроме настоящей жизни»
    7.775 / 10 8.10 / 10
    -Год выпуска: 2016
    Страна: США
    Жанр: Драма, мелодрама, комедия
    Продолжительность: 01:58:54
    Перевод: Многоголосый закадровый (iTunes)
    Оригинальная аудиодорожка: Нет
    Cубтитры: Нет
    Режиссёр: Мэтт Росс
    Сценарий: Мэтт Росс
    Продюсер: Деклан Болдуин, Саманта Хаусман, Моника Левинсон
    Оператор: Стефан Фонтен
    Композитор: Алекс Сомерс
    Художник: Расселл Барнс, Эрик Дональдсон, Кортни Хоффман
    Монтаж: Джозеф Крингс
    В ролях: Вигго Мортенсен, Джордж МакКэй, Саманта Ислер, Анналиса Бассо, Николас Хэмилтон, Шри Крукс, Чарли Шотуэлл, Трин Миллер, Кэтрин Хан, Стив Зан
    Сборы в США: $5 118 527
    Сборы в России: $100 316
    Мировая премьера: 23 января 2016
    Премьера (РФ): 11 августа 2016, «Capella Film»
    Описание: Они говорят на нескольких языках, знают квантовую физику и разбираются в философии. Они умеют охотиться и обращаться с оружием. Они живут в лесу в полной гармонии с природой. Лишь стечение обстоятельств заставляет их покинуть родной дом и отправиться в большой город. Что будет, когда они столкнутся с цивилизацией, когда на них обрушится первая любовь и мир гаджетов и социальных сетей?-Качество исходника: WEB-DL 720p (NNMClub)
    Качество: WEB-DL
    Тип: HD (720p)
    Контейнер: M4V
    Видео: H.264, 1280x536, 2.40:1, 4 036 Kbps, 24.000 fps
    Аудио 1: Русский/Многоголосый закадровый (iTunes), AAC / 2.0 / 160 Kbps / 48.0 KHz
    Аудио 2: Русский/Многоголосый закадровый (iTunes), AC-3 / 5.1 / 384 Kbps / 48.0 KHz
    -

    iTunes Meta Tags

    Sort Name: Captain Fantastic
    XID: Apple:vendor_id:2016-841147
    contentID: 1127934488
    Copyright: © 2016 Bleecker Street Media LLC. All Rights Reserved.
    Screenwriters: Мэтт Росс
    Producers: Деклан Болдуин, Саманта Хаусман, Моника Левинсон
    Director: Мэтт Росс
    Cast: Вигго Мортенсен, Джордж МакКэй, Саманта Ислер, Анналиса Бассо, Николас Хэмилтон, Шри Крукс, Чарли Шотуэлл, Трин Миллер, Кэтрин Хан, Стив Зан
    Studio: Bleecker Street
    Rating: 5
    Long Description: Они говорят на нескольких языках, знают квантовую физику и разбираются в философии. Они умеют охотиться и обращаться с оружием. Они живут в лесу в полной гармонии с природой. Лишь стечение обстоятельств заставляет их покинуть родной дом и отправиться в большой город. Что будет, когда они столкнутся с цивилизацией, когда на них обрушится первая любовь и мир гаджетов и социальных сетей?
    Description: Они говорят на нескольких языках, знают квантовую физику и разбираются в философии. Они умеют охотиться и обращаться с оружием. Они живут в лесу в полной гармонии с природой. Лишь стечение обстоятельств заставляет их покинуть родной дом и отправиться в большой город. Что будет, когда они столкнутся с цивилизацией, когда на них обрушится первая любовь и мир гаджетов и социальных сетей?
    Release Date: 2016-01-23T08:00:00Z
    Genre: Drama
    Artist: Matt Ross
    Name: Captain Fantastic

    MediaInfo

    General
    Complete name : /Users/imac/HandBrake/Captain.Fantastic.WEB-DL.720p.m4v
    Format : MPEG-4
    Codec ID : M4V
    File size : 3.81 GiB
    Duration : 1h 58mn
    Overall bit rate mode : Variable
    Overall bit rate : 4 584 Kbps
    Movie name : Captain Fantastic
    Performer : Matt Ross
    Director : Мэтт Росс
    Actor : Вигго Мортенсен / Джордж МакКэй / Саманта Ислер / Анналиса Бассо / Николас Хэмилтон / Шри Крукс / Чарли Шотуэлл / Трин Миллер / Кэтрин Хан / Стив Зан
    Screenplay by : Мэтт Росс
    Producer : Деклан Болдуин / Саманта Хаусман / Моника Левинсон
    Production studio : Bleecker Street
    Genre : Drama
    ContentType : Short Film
    Description : Они говорят на нескольких языках, знают квантовую физику и разбираются в философии. Они умеют охотиться и обращаться с оружием. Они живут в лесу в полной гармонии с природой. Лишь стечение обстоятельств заставляет их покинуть родной дом и отправиться в большой город. Что будет, когда они столкнутся с цивилизацией, когда на них обрушится первая любовь и мир гаджетов и социальных сетей?
    Recorded date : UTC 2016-01-23 08:00:00
    Encoded date : UTC 2016-09-02 17:19:40
    Tagged date : UTC 2016-09-02 17:20:33
    Copyright : © 2016 Bleecker Street Media LLC. All Rights Reserved.
    Cover : Yes
    Rating : None
    Title/Sort : Captain Fantastic
    LongDescription : Они говорят на нескольких языках, знают квантовую физику и разбираются в философии. Они умеют охотиться и обращаться с оружием. Они живут в лесу в полной гармонии с природой. Лишь стечение обстоятельств заставляет их покинуть родной дом и отправиться в большой город. Что будет, когда они столкнутся с цивилизацией, когда на них обрушится первая любовь и мир гаджетов и социальных сетей?
    HDVideo : Yes
    AppleStoreCatalogID : 1127934488
    Vendor : Apple:vendor_id:2016-841147
    ContentRating : mpaa|R|400|
    Video #1
    ID : 1
    Format : AVC
    Format/Info : Advanced Video Codec
    Format profile : Main@L3.1
    Format settings, CABAC : No
    Format settings, ReFrames : 2 frames
    Codec ID : avc1
    Codec ID/Info : Advanced Video Coding
    Duration : 1h 58mn
    Bit rate : 4 036 Kbps
    Width : 1 280 pixels
    Height : 536 pixels
    Display aspect ratio : 2.40:1
    Frame rate mode : Variable
    Frame rate : 24.000 fps
    Minimum frame rate : 23.810 fps
    Maximum frame rate : 24.390 fps
    Color space : YUV
    Chroma subsampling : 4:2:0
    Bit depth : 8 bits
    Scan type : Progressive
    Bits/(Pixel*Frame) : 0.245
    Stream size : 3.35 GiB (88%)
    Title : Main Program
    Language : English
    Encoded date : UTC 2016-09-02 17:19:40
    Tagged date : UTC 2016-09-02 17:20:00
    Color range : Limited
    Color primaries : BT.709
    Transfer characteristics : BT.709
    Matrix coefficients : BT.709
    Video #2
    ID : 5
    Format : JPEG
    Codec ID : jpeg
    Duration : 1h 58mn
    Bit rate mode : Variable
    Bit rate : 1 067 bps
    Width : 640 pixels
    Height : 268 pixels
    Display aspect ratio : 2.40:1
    Frame rate mode : Variable
    Frame rate : 0.003 fps
    Minimum frame rate : 0.002 fps
    Maximum frame rate : 0.003 fps
    Color space : YUV
    Chroma subsampling : 4:2:0
    Bit depth : 8 bits
    Compression mode : Lossy
    Bits/(Pixel*Frame) : 2.074
    Stream size : 825 KiB (0%)
    Title : Chapter Images
    Language : English
    Encoded date : UTC 2016-09-02 17:20:04
    Tagged date : UTC 2016-09-02 17:20:05
    Audio #1
    ID : 2
    Format : AAC
    Format/Info : Advanced Audio Codec
    Format profile : LC
    Codec ID : 40
    Duration : 1h 58mn
    Bit rate mode : Variable
    Bit rate : 156 Kbps
    Maximum bit rate : 226 Kbps
    Channel(s) : 2 channels
    Channel positions : Front: L R
    Sampling rate : 48.0 KHz
    Compression mode : Lossy
    Stream size : 133 MiB (3%)
    Title : Russian Stereo
    Language : Russian
    Encoded date : UTC 2016-09-02 17:19:41
    Tagged date : UTC 2016-09-02 17:19:47
    Audio #2
    ID : 3
    Format : AC-3
    Format/Info : Audio Coding 3
    Mode extension : CM (complete main)
    Format settings, Endianness : Big
    Codec ID : ac-3
    Duration : 1h 58mn
    Bit rate mode : Constant
    Bit rate : 384 Kbps
    Channel(s) : 6 channels
    Channel positions : Front: L C R, Side: L R, LFE
    Sampling rate : 48.0 KHz
    Bit depth : 16 bits
    Compression mode : Lossy
    Stream size : 327 MiB (8%)
    Title : Russian DD 5.1
    Language : Russian
    Encoded date : UTC 2016-09-02 17:19:41
    Tagged date : UTC 2016-09-02 17:19:47
    Menu #1
    00:00:00.000 : Глава 1
    00:06:49.000 : Глава 2
    00:12:48.000 : Глава 3
    00:19:38.000 : Глава 4
    00:24:52.000 : Глава 5
    00:30:19.000 : Глава 6
    00:35:25.000 : Глава 7
    00:42:10.000 : Глава 8
    00:47:54.000 : Глава 9
    00:53:33.000 : Глава 10
    00:59:04.000 : Глава 11
    01:05:33.000 : Глава 12
    01:11:38.000 : Глава 13
    01:17:09.000 : Глава 14
    01:23:58.000 : Глава 15
    01:30:00.000 : Глава 16
    01:36:19.000 : Глава 17
    01:42:24.000 : Глава 18
    01:49:33.000 : Глава 19
    Menu #2
    ID : 4
    Codec ID : text
    Duration : 1h 58mn
    Language : English
    Encoded date : UTC 2016-09-02 17:20:00
    Tagged date : UTC 2016-09-02 17:20:00
    00:00:00.000 : Глава 1
    00:06:49.000 : Глава 2
    00:12:48.000 : Глава 3
    00:19:38.000 : Глава 4
    00:24:52.000 : Глава 5
    00:30:19.000 : Глава 6
    00:35:25.000 : Глава 7
    00:42:10.000 : Глава 8
    00:47:54.000 : Глава 9
    00:53:33.000 : Глава 10
    00:59:04.000 : Глава 11
    01:05:33.000 : Глава 12
    01:11:38.000 : Глава 13
    01:17:09.000 : Глава 14
    01:23:58.000 : Глава 15
    01:30:00.000 : Глава 16
    01:36:19.000 : Глава 17
    01:42:24.000 : Глава 18
    01:49:33.000 : Глава 19
    Bit rate mode : VBR

    Скриншоты


    -

    Релиз подготовлен для просмотра на Apple TV, iPad, iPhone, iPod Touch.
    Для просмотра данного релиза на компьютере с ОС Windows рекомендуется использовать VLC media player
    Скачать .torrent

    Скачать торрент-файл бесплатно и на максимальной скорости!

    Как скачивать? · Что такое торрент? · Рейтинг и ограничения

    !ВНИМАНИЕ!
    Сайт не распространяет и не хранит электронные версии произведений, а занимается лишь лишь предоставлением доступа к создаваемому пользователями каталогу ссылок на торрент-файлы, которые содержат только списки хеш-сумм, убедительная просьба с жалобами обращаться напрямую к пользователю. Файлы для обмена на трекере предоставлены пользователями сайта, и администрация не несёт ответственности за их содержание. Просьба не заливать файлы, защищенные авторскими правами, а также файлы нелегального содержания!


    _________________
    [Профиль] [ЛС]
    Показать сообщения:    
    Ответить на тему

    Текущее время: Сегодня, в 22:08

    Часовой пояс: GMT + 2



    Вы не можете начинать темы
    Вы не можете отвечать на сообщения
    Вы не можете редактировать свои сообщения
    Вы не можете удалять свои сообщения
    Вы не можете голосовать в опросах
    Вы не можете прикреплять файлы к сообщениям
    Вы не можете скачивать файлы