Register  ·  Log in
Forgot password?

  • Крутые меры / Bastille Day (Джеймс Уоткинс / James Watkins) [2016, Великобритания, Франция, США, Боевик, драма, HDRip] VO (Д. Есарев)

    Reply to topic
    Author Message


    Post 02-Sep-2016 23:31



    Крутые меры / Bastille Day
    Страна: Великобритания, Франция, США
    Жанр: Боевик, драма
    Год выпуска: 2016
    Продолжительность: 01:31:49
    Перевод: Одноголосый закадровый - Д. Есарев (ненорматив. лексика)
    Cубтитры: нет
    Оригинальная аудиодорожка: нет-Режиссер: Джеймс Уоткинс / James Watkins-В ролях: Идрис Эльба, Ричард Мэдден, Келли Райлли, Шарлотта Ле Бон, Анатол Юсеф, Хорхе Леон Мартинес, Карл Фаррер, Хосе Гарсиа, Александр Купер, Эрик Эбони-Описание: Ловкий карманник Майкл Мэйсон привлекает внимание полиции и спецслужб, когда крадет сумку, содержащую гораздо больше, чем просто бумажник. На его след выходит дерзкий и резкий спецагент ЦРУ Шон Брайар. Вдвоем они становятся мишенью тайной преступной организации и в течение суток должны вывести злоумышленников на чистую воду.-Качество видео: HDRip
    Формат видео: AVI
    Видео: 688x288 (2.39:1), 24.000 fps, XviD build 73 ~995 kbps avg, 0.21 bit/pixel
    Аудио: 48 kHz, MPEG Layer 3, 2 ch, ~128.00 kbps avg-


    Format                      : AVI
    Format/Info                 : Audio Video Interleave
    File size                   : 744 MiB
    Duration                    : 1 h 31 min
    Overall bit rate            : 1 133 kb/s
    Writing application         : VirtualDubMod | || (build 2550/release)
    Writing library             : VirtualDubMod build 2550/release
    ID                          : 0
    Format                      : MPEG-4 Visual
    Format profile              : Advanced Simple@L5
    Format settings, BVOP       : 1
    Format settings, QPel       : No
    Format settings, GMC        : No warppoints
    Format settings, Matrix     : Custom
    Codec ID                    : XVID
    Codec ID/Hint               : XviD
    Duration                    : 1 h 31 min
    Bit rate                    : 996 kb/s
    Width                       : 688 pixels
    Height                      : 288 pixels
    Display aspect ratio        : 2.40:1
    Frame rate                  : 24.000 FPS
    Color space                 : YUV
    Chroma subsampling          : 4:2:0
    Bit depth                   : 8 bits
    Scan type                   : Progressive
    Compression mode            : Lossy
    Bits/(Pixel*Frame)          : 0.209
    Stream size                 : 654 MiB (88%)
    Writing library             : XviD 73
    ID                          : 1
    Format                      : MPEG Audio
    Format version              : Version 1
    Format profile              : Layer 3
    Codec ID                    : 55
    Codec ID/Hint               : MP3
    Duration                    : 1 h 31 min
    Bit rate mode               : Constant
    Bit rate                    : 128 kb/s
    Channel(s)                  : 2 channels
    Sampling rate               : 48.0 kHz
    Compression mode            : Lossy
    Stream size                 : 84.1 MiB (11%)
    Alignment                   : Aligned on interleaves
    Interleave, duration        : 42  ms (1.00 video frame)
    Interleave, preload duratio : 504  ms
    Writing library             : LAME3.99r
    Encoding settings           : -m s -V 4 -q 2 -lowpass 17 -b 128


    Download .torrent

    Download free and at maximum speed!

    How to Download? · What is a torrent? · Ratings and Limitations

    The site does not extend and does not store electronic(digital) versions of products, and only gives access to a reference catalogue created by users on torrent-files which contain only lists of the hash-sums, the earnest entreaty, with complaints(abuse) to access directly to the user. Files for an exchange on tracker are given by users of a site, and the administration does not bear the responsibility for their maintenance. The request to not fill in the files protected by copyrights, and also files of the illegal maintenance!

    [Profile] [PM]
    Display posts from previous:    
    Reply to topic

    The time now is: Today 17:56

    All times are GMT + 3 Hours

    You cannot post new topics in this forum
    You cannot reply to topics in this forum
    You cannot edit your posts in this forum
    You cannot delete your posts in this forum
    You cannot vote in polls in this forum
    You cannot attach files in this forum
    You cannot download files in this forum