BitTorrentTracker PerecTracker.org
BitTorrentTracker PerecTracker.org
    
Регистрация  ·  Вход
 
 · 
Забыли пароль?

  • Полтора шпиона / Central Intelligence (Роусон Маршалл Тёрбер / Rawson Marshall Thurber ) [2016, США, Боевик, комедия, криминал, WEB-DL, HD (720p)] DUB

    Ответить на тему
     
    Автор Сообщение

    rechyn

    Создавать темы 01-Сен-2016 21:34

           

    [Цитировать]

    Полтора шпиона / Central Intelligence
    «Они попробуют спасти мир: малыш Харт и скала Джонсон»
    6.383 / 10 6.50 / 10
    -Год выпуска: 2016
    Страна: США
    Жанр: Боевик, комедия, криминал
    Продолжительность: 01:47:31
    Перевод: Дублированный (iTunes)
    Оригинальная аудиодорожка: Нет
    Cубтитры: Нет
    Режиссёр: Роусон Маршалл Тёрбер
    Сценарий: Айк Баринхолц, Дэвид Стассен, Роусон Маршалл Тёрбер
    Продюсер: Питер Принципато, Скотт Стубер, Пол Янг
    Оператор: Бэрри Петерсон
    Композитор: Людвиг Горанссон, Теодор Шапиро
    Художник: Стивен Дж. Лайнуивер, Рэйчел Блок, Брайан Фелти
    Монтаж: Брайан Скотт Олдз, Майкл Л. Сейл
    В ролях: Дуэйн Джонсон, Кевин Харт, Эми Райан, Даниэль Николет, Джейсон Бейтман, Аарон Пол, Райан Хансен, Тим Гриффин, Тимоти Джон Смит, Сион Келепи
    Бюджет: $50 000 000
    Сборы в США: $127 411 564
    Сборы в мире: + $85 183 023 = $212 594 587
    Сборы в России: $1 647 336
    Мировая премьера: 10 июня 2016
    Премьера (РФ): 7 июля 2016, «UPI»
    Описание: От лайка в соцсети до спасения мира — один шаг. Сегодня ты френдишь бывшего одноклассника, а завтра — он тащит тебя под пули. Кто ж знал, что заядлый любитель пончиков превратится в похожего на скалу супершпиона.-Качество исходника: WEB-DL 720p (HDClub)
    Качество: WEB-DL
    Тип: HD (720p)
    Контейнер: M4V
    Видео: H.264, 1280x532, 2.40:1, 4 046 Kbps, 23.976 fps
    Аудио 1: Русский/Дублированный (iTunes), AAC / 2.0 / 160 Kbps / 48.0 KHz
    Аудио 2: Русский/Дублированный (iTunes), AC-3 / 5.1 / 384 Kbps / 48.0 KHz
    -

    iTunes Meta Tags

    Sort Name: Central Intelligence
    XID: Apple:vendor_id:2016-472105
    contentID: 1128567802
    Copyright: © 2016 Warner Bros. Entertainment
    Screenwriters: Айк Баринхолц, Дэвид Стассен, Роусон Маршалл Тёрбер
    Producers: Питер Принципато, Скотт Стубер, Пол Янг
    Director: Роусон Маршалл Тёрбер
    Cast: Дуэйн Джонсон, Кевин Харт, Эми Райан, Даниэль Николет, Джейсон Бейтман, Аарон Пол, Райан Хансен, Тим Гриффин, Тимоти Джон Смит, Сион Келепи, Юрий Брежнев, Диомид Виноградов, Ольга Зверева, Ирина Киреева, Даниил Эльдаров
    Studio: New Line
    Rating: 4
    Long Description: От лайка в соцсети до спасения мира - один шаг. Сегодня ты френдишь бывшего одноклассника, а завтра - он тащит тебя под пули. Кто ж знал, что заядлый любитель пончиков превратится в похожего на скалу супершпиона.
    Description: От лайка в соцсети до спасения мира - один шаг. Сегодня ты френдишь бывшего одноклассника, а завтра - он тащит тебя под пули. Кто ж знал, что заядлый любитель пончиков превратится в похожего на скалу супершпиона.
    Release Date: 2016-06-10T08:00:00Z
    Genre: Comedy
    Artist: Rawson Marshall Thurber
    Name: Central Intelligence

    MediaInfo

    General
    Complete name : /Users/imac/HandBrake/Central.Intelligence.WEB-DL.720p.m4v
    Format : MPEG-4
    Codec ID : M4V
    File size : 3.45 GiB
    Duration : 1h 47mn
    Overall bit rate mode : Variable
    Overall bit rate : 4 591 Kbps
    Movie name : Central Intelligence
    Performer : Rawson Marshall Thurber
    Director : Роусон Маршалл Тёрбер
    Actor : Дуэйн Джонсон / Кевин Харт / Эми Райан / Даниэль Николет / Джейсон Бейтман / Аарон Пол / Райан Хансен / Тим Гриффин / Тимоти Джон Смит / Сион Келепи / Юрий Брежнев / Диомид Виноградов / Ольга Зверева / Ирина Киреева / Даниил Эльдаров
    Screenplay by : Айк Баринхолц / Дэвид Стассен / Роусон Маршалл Тёрбер
    Producer : Питер Принципато / Скотт Стубер / Пол Янг
    Production studio : New Line
    Genre : Comedy
    ContentType : Short Film
    Description : От лайка в соцсети до спасения мира - один шаг. Сегодня ты френдишь бывшего одноклассника, а завтра - он тащит тебя под пули. Кто ж знал, что заядлый любитель пончиков превратится в похожего на скалу супершпиона.
    Recorded date : UTC 2016-06-10 08:00:00
    Encoded date : UTC 2016-09-01 10:43:43
    Tagged date : UTC 2016-09-01 10:49:08
    Copyright : © 2016 Warner Bros. Entertainment
    Cover : Yes
    Rating : None
    Title/Sort : Central Intelligence
    LongDescription : От лайка в соцсети до спасения мира - один шаг. Сегодня ты френдишь бывшего одноклассника, а завтра - он тащит тебя под пули. Кто ж знал, что заядлый любитель пончиков превратится в похожего на скалу супершпиона.
    HDVideo : Yes
    AppleStoreCatalogID : 1128567802
    Vendor : Apple:vendor_id:2016-472105
    ContentRating : mpaa|PG-13|300|
    Video #1
    ID : 1
    Format : AVC
    Format/Info : Advanced Video Codec
    Format profile : Main@L3.1
    Format settings, CABAC : No
    Format settings, ReFrames : 2 frames
    Codec ID : avc1
    Codec ID/Info : Advanced Video Coding
    Duration : 1h 47mn
    Bit rate : 4 046 Kbps
    Width : 1 280 pixels
    Height : 532 pixels
    Display aspect ratio : 2.40:1
    Frame rate mode : Variable
    Frame rate : 23.976 fps
    Minimum frame rate : 23.810 fps
    Maximum frame rate : 24.390 fps
    Color space : YUV
    Chroma subsampling : 4:2:0
    Bit depth : 8 bits
    Scan type : Progressive
    Bits/(Pixel*Frame) : 0.248
    Stream size : 3.04 GiB (88%)
    Title : Main Program
    Language : English
    Encoded date : UTC 2016-09-01 10:43:43
    Tagged date : UTC 2016-09-01 10:45:10
    Color range : Limited
    Color primaries : BT.709
    Transfer characteristics : BT.709
    Matrix coefficients : BT.709
    Video #2
    ID : 5
    Format : JPEG
    Codec ID : jpeg
    Duration : 1h 47mn
    Bit rate mode : Variable
    Bit rate : 662 bps
    Width : 640 pixels
    Height : 266 pixels
    Display aspect ratio : 2.40:1
    Frame rate mode : Variable
    Frame rate : 0.002 fps
    Minimum frame rate : 0.001 fps
    Maximum frame rate : 0.009 fps
    Color space : YUV
    Chroma subsampling : 4:2:0
    Bit depth : 8 bits
    Compression mode : Lossy
    Bits/(Pixel*Frame) : 1.944
    Stream size : 485 KiB (0%)
    Title : Chapter Images
    Language : English
    Encoded date : UTC 2016-09-01 10:45:13
    Tagged date : UTC 2016-09-01 10:45:13
    Audio #1
    ID : 2
    Format : AAC
    Format/Info : Advanced Audio Codec
    Format profile : LC
    Codec ID : 40
    Duration : 1h 47mn
    Bit rate mode : Variable
    Bit rate : 154 Kbps
    Maximum bit rate : 245 Kbps
    Channel(s) : 2 channels
    Channel positions : Front: L R
    Sampling rate : 48.0 KHz
    Compression mode : Lossy
    Stream size : 118 MiB (3%)
    Title : Russian Stereo
    Language : Russian
    Encoded date : UTC 2016-09-01 10:43:43
    Tagged date : UTC 2016-09-01 10:43:50
    Audio #2
    ID : 3
    Format : AC-3
    Format/Info : Audio Coding 3
    Mode extension : CM (complete main)
    Format settings, Endianness : Big
    Codec ID : ac-3
    Duration : 1h 47mn
    Bit rate mode : Constant
    Bit rate : 384 Kbps
    Channel(s) : 6 channels
    Channel positions : Front: L C R, Side: L R, LFE
    Sampling rate : 48.0 KHz
    Bit depth : 16 bits
    Compression mode : Lossy
    Stream size : 295 MiB (8%)
    Title : Russian DD 5.1
    Language : Russian
    Encoded date : UTC 2016-09-01 10:43:43
    Tagged date : UTC 2016-09-01 10:45:10
    Menu #1
    00:00:00.000 : 1
    00:09:12.000 : 2
    00:20:12.000 : 3
    00:30:31.000 : 4
    00:43:22.000 : 5
    00:52:43.000 : 6
    00:58:10.000 : 7
    01:10:17.000 : 8
    01:18:37.000 : 9
    01:28:57.000 : 10
    01:39:37.000 : 11
    01:41:33.000 : 12
    Menu #2
    ID : 4
    Codec ID : text
    Duration : 1h 47mn
    Language : English
    Encoded date : UTC 2016-09-01 10:45:10
    Tagged date : UTC 2016-09-01 10:45:10
    00:00:00.000 : 1
    00:09:12.000 : 2
    00:20:12.000 : 3
    00:30:31.000 : 4
    00:43:22.000 : 5
    00:52:43.000 : 6
    00:58:10.000 : 7
    01:10:17.000 : 8
    01:18:37.000 : 9
    01:28:57.000 : 10
    01:39:37.000 : 11
    01:41:33.000 : 12
    Bit rate mode : VBR

    Скриншоты


    -

    Релиз подготовлен для просмотра на Apple TV, iPad, iPhone, iPod Touch.
    Для просмотра данного релиза на компьютере с ОС Windows рекомендуется использовать VLC media player
    Скачать .torrent

    Скачать торрент-файл бесплатно и на максимальной скорости!

    Как скачивать? · Что такое торрент? · Рейтинг и ограничения

    !ВНИМАНИЕ!
    Сайт не распространяет и не хранит электронные версии произведений, а занимается лишь лишь предоставлением доступа к создаваемому пользователями каталогу ссылок на торрент-файлы, которые содержат только списки хеш-сумм, убедительная просьба с жалобами обращаться напрямую к пользователю. Файлы для обмена на трекере предоставлены пользователями сайта, и администрация не несёт ответственности за их содержание. Просьба не заливать файлы, защищенные авторскими правами, а также файлы нелегального содержания!


    _________________
    [Профиль] [ЛС]
    Показать сообщения:    
    Ответить на тему

    Текущее время: Сегодня, в 22:30

    Часовой пояс: GMT + 2



    Вы не можете начинать темы
    Вы не можете отвечать на сообщения
    Вы не можете редактировать свои сообщения
    Вы не можете удалять свои сообщения
    Вы не можете голосовать в опросах
    Вы не можете прикреплять файлы к сообщениям
    Вы не можете скачивать файлы