BitTorrentTracker PerecTracker.org
BitTorrentTracker PerecTracker.org
    
Регистрация  ·  Вход
 
 · 
Забыли пароль?

  • Черепашки-ниндзя 2 / Teenage Mutant Ninja Turtles: Out of the Shadows (2016) WEB-DLRip | iTunes

    Ответить на тему
     
    Автор Сообщение

    BOSS

    Создавать темы 01-Сен-2016 18:45

           

    [Цитировать]

    Информация о фильме
    Название: Черепашки-ниндзя 2
    Оригинальное название: Teenage Mutant Ninja Turtles: Out of the Shadows
    Год выпуска: 2016
    Жанр: Фантастика, фэнтези, боевик, комедия, приключения
    Режиссеры: Дэйв Грин
    В ролях: Меган Фокс, Алан Ричсон, Уилл Арнетт, Стефен Фаррелли, Алессандра Амброзио, Брэд Гэррет, Тайлер Перри
    О фильме:
    Доблестная четверка пионеров в костяных бронежилетах продолжает исподтишка охранять общественный порядок в Нью-Йорке. Между тем, главный уголовный авторитет города по кличке Шреддер сбегает из-под стражи. Вместе со своей бандой "Черная нога" он начинает творить всяческие непотребства: топчет муравейники, поливает цветы в парке китайским супер-клеем, распевает гимн Советского Союза на японском языке и организует вторжение инопланетного мозга-желе, собирающегося красиво разбомбить человечество северным сиянием. Черепашкам и их боевой подруге Эйприл О’Нил вновь предстоит спасать всех людей доброй воли, заручившись неожиданной помощью фаната "Пятницы 13-е" - мстителя в хоккейной маске Кейси Джонса.

    Страна: США
    Студия: Gama Entertainment Partners, Nickelodeon Movies, Paramount Pictures, Platinum Dunes
    Продолжительность: 01:52:15
    Перевод: Профессиональный (полное дублирование) | iTunes
    Файл
    Формат: AVI
    Качество: WEB-DLRip
    Видео: XviD, 688x288 (2.40:1), 23.976 fps, 1462 Kbps (0.308 bit/pixel)
    Звук: 48.0 kHz, AC3 Dolby Digital, 5/1 (L C R, Side: L R, LFE) ch, 384 kbps
    Субтитры: Русские (на надписи и прочее) https://yadi.sk/d/ikIHC_6zugGKr - форсированные

    МедиаИнфо

    General
    Complete name : Cherepashki.Nindzja.2.2016.XviD.1.45Gb.WEB-DLRip.by.GeneralFilm.avi
    Format : AVI
    Format/Info : Audio Video Interleave
    File size : 1.45 GiB
    Duration : 1h 52mn
    Overall bit rate : 1 855 Kbps
    Writing application : VirtualDubMod 1.5.10.3 | www.virtualdub-fr.org || (build 2550/release)
    Writing library : VirtualDubMod build 2550/release
    Video
    ID : 0
    Format : MPEG-4 Visual
    Format profile : Advanced Simple@L5
    Format settings, BVOP : 1
    Format settings, QPel : No
    Format settings, GMC : No warppoints
    Format settings, Matrix : Custom
    Codec ID : XVID
    Codec ID/Hint : XviD
    Duration : 1h 52mn
    Bit rate : 1 462 Kbps
    Width : 688 pixels
    Height : 288 pixels
    Display aspect ratio : 2.40:1
    Frame rate : 23.976 (23976/1000) fps
    Color space : YUV
    Chroma subsampling : 4:2:0
    Bit depth : 8 bits
    Scan type : Progressive
    Compression mode : Lossy
    Bits/(Pixel*Frame) : 0.308
    Stream size : 1.15 GiB (79%)
    Writing library : XviD 73
    Audio
    ID : 1
    Format : AC-3
    Format/Info : Audio Coding 3
    Mode extension : CM (complete main)
    Format settings, Endianness : Big
    Codec ID : 2000
    Duration : 1h 52mn
    Bit rate mode : Constant
    Bit rate : 384 Kbps
    Channel(s) : 6 channels
    Channel positions : Front: L C R, Side: L R, LFE
    Sampling rate : 48.0 KHz
    Frame rate : 31.250 fps (1536 spf)
    Compression mode : Lossy
    Stream size : 308 MiB (21%)
    Alignment : Split accross interleaves
    Interleave, duration : 42 ms (1.00 video frame)
    Interleave, preload duratio : 500 ms

    Скриншоты





    Скачать .torrent

    Скачать торрент-файл бесплатно и на максимальной скорости!

    Как скачивать? · Что такое торрент? · Рейтинг и ограничения

    !ВНИМАНИЕ!
    Сайт не распространяет и не хранит электронные версии произведений, а занимается лишь лишь предоставлением доступа к создаваемому пользователями каталогу ссылок на торрент-файлы, которые содержат только списки хеш-сумм, убедительная просьба с жалобами обращаться напрямую к пользователю. Файлы для обмена на трекере предоставлены пользователями сайта, и администрация не несёт ответственности за их содержание. Просьба не заливать файлы, защищенные авторскими правами, а также файлы нелегального содержания!

    [Профиль] [ЛС]
    Показать сообщения:    
    Ответить на тему

    Текущее время: Сегодня, в 20:48

    Часовой пояс: GMT + 2



    Вы не можете начинать темы
    Вы не можете отвечать на сообщения
    Вы не можете редактировать свои сообщения
    Вы не можете удалять свои сообщения
    Вы не можете голосовать в опросах
    Вы не можете прикреплять файлы к сообщениям
    Вы не можете скачивать файлы