BitTorrentTracker PerecTracker.org
BitTorrentTracker PerecTracker.org
    
Регистрация  ·  Вход
 
 · 
Забыли пароль?

  • Первый мститель: Противостояние / Captain America: Civil War (Джо Руссо / Joe Russo, Энтони Руссо / Anthony Russo) [2016, США, фантастика, боевик, триллер, приключения, BDRip-AVC] Dub + Sub (rus)

    Ответить на тему
     
    Автор Сообщение

    rechyn

    Создавать темы 01-Сен-2016 09:06

           

    [Цитировать]

    Первый мститель: Противостояние / Captain America: Civil War«Разделившись, мы падём»-Страна: США
    Жанр: фантастика, боевик, триллер, приключения
    Год выпуска: 2016
    Продолжительность: 02:27:42
    Перевод: Профессиональный (дублированный) (iTunes)
    Оригинальная аудиодорожка: нет
    Cубтитры: русские (форс)
    Навигация по главам: есть
    Режиссеры: Джо Руссо / Joe Russo, Энтони Руссо / Anthony Russo
    В ролях: Крис Эванс, Роберт Дауни мл., Скарлетт Йоханссон, Себастьян Стэн, Энтони Маки, Дон Чидл, Джереми Реннер, Чедвик Боузман
    Описание: Капитан Америка руководит Мстителями. Команда становится участниками крупномасштабного разрушительного инцидента, последствия которого скажутся на расстановке сил в мире. Правительство принимает решение: регулировать действия супергероев – всех, кто наделен особыми способностями. Введен некий акт регистрации супергеройских личностей, которых обязуют работать под началом руководства страны. Стив Роджерс категорически не согласен с новыми правилами. Новый закон для него – свидетельство ущемления правительством гражданских прав. Герой восстает против нововведений, и за ним идут его сподвижники. Тони Старк – наоборот, приветствует новые правила и возглавляет тех, кто согласен с его убеждениями. В стане Мстителей раскол, гражданская война развернется нешуточная. Тем временем Барон Земо строит свои коварные планы, рассчитывая на противоборство супергероев друг с другом, что ослабляет обе стороны…- -Качество видео: BDRip-AVC (исходник - BDRemux|CAPTAIN_AMERICA_CIVIL_WAR_REMUX_HDCLUB)
    Видео: x264, 1056x442 (2.40:1), 23,976 fps, ~1679 kbps, 0.150 bit/pixel
    Аудио: 48 kHz, AC3 Dolby Digital, 3/2 (L,C,R,l,r) + LFE ch, ~384 kbps
    Формат субтитров: softsub (SRT)
    MediaInfo | x264 log
    Format : Matroska
    Format version : Version 4 / Version 2
    File size : 2.18 GiB
    Duration : 2h 27mn
    Overall bit rate : 2 105 Kbps
    Movie name : Первый мститель: Противостояние / Captain America: Civil War (2016) :: AFM ::
    Encoded date : UTC 2016-08-31 10:39:06
    Writing application : mkvmerge v8.3.0 ('Over the Horizon') 32bit
    Writing library : libebml v1.3.1 + libmatroska v1.4.2
    Video
    ID : 1
    Format : AVC
    Format/Info : Advanced Video Codec
    Format profile : High@L4.1
    Format settings, CABAC : Yes
    Format settings, ReFrames : 11 frames
    Codec ID : V_MPEG4/ISO/AVC
    Duration : 2h 27mn
    Bit rate : 1 679 Kbps
    Width : 1 056 pixels
    Height : 442 pixels
    Display aspect ratio : 2.40:1
    Frame rate mode : Constant
    Frame rate : 23.976 fps
    Color space : YUV
    Chroma subsampling : 4:2:0
    Bit depth : 8 bits
    Scan type : Progressive
    Bits/(Pixel*Frame) : 0.150
    Stream size : 1.74 GiB (80%)
    Title : BDRip by AFM [RuTracker.org]
    Writing library : x264 core 148 r2705+54 9f484c1 t_mod_Custom [8-bit@all X86_64]
    Encoding settings : cabac=1 / ref=11 / deblock=1:-2:-2 / analyse=0x3:0x113 / me=umh / subme=10 / psy=1 / fade_compensate=0.00 / psy_rd=1.00:0.00 / mixed_ref=1 / me_range=32 / chroma_me=1 / trellis=2 / 8x8dct=1 / cqm=0 / deadzone=21,11 / fast_pskip=0 / chroma_qp_offset=-2 / threads=6 / lookahead_threads=1 / sliced_threads=0 / nr=0 / decimate=1 / interlaced=0 / bluray_compat=0 / constrained_intra=0 / fgo=0 / bframes=13 / b_pyramid=2 / b_adapt=2 / b_bias=0 / direct=1 / weightb=1 / open_gop=0 / weightp=2 / keyint=250 / keyint_min=23 / scenecut=40 / intra_refresh=0 / rc_lookahead=40 / rc=crf / mbtree=0 / crf=17.9200 / qcomp=0.65 / qpmin=0:0:0 / qpmax=69:69:69 / qpstep=4 / vbv_maxrate=50000 / vbv_bufsize=62500 / crf_max=0.0 / nal_hrd=none / filler=0 / ip_ratio=1.35 / pb_ratio=1.30 / aq=3:0.85 / aq-sensitivity=10.00 / aq-factor=1.00:1.00:1.00 / aq2=0 / aq3=0
    Language : English
    Default : Yes
    Forced : No
    Audio
    ID : 2
    Format : AC-3
    Format/Info : Audio Coding 3
    Mode extension : CM (complete main)
    Format settings, Endianness : Big
    Codec ID : A_AC3
    Duration : 2h 27mn
    Bit rate mode : Constant
    Bit rate : 384 Kbps
    Channel(s) : 6 channels
    Channel positions : Front: L C R, Side: L R, LFE
    Sampling rate : 48.0 KHz
    Compression mode : Lossy
    Stream size : 406 MiB (18%)
    Title : Dub, AC3 5.1 ~384 kbps
    Language : Russian
    Default : Yes
    Forced : No
    Text
    ID : 3
    Format : UTF-8
    Codec ID : S_TEXT/UTF8
    Codec ID/Info : UTF-8 Plain Text
    Title : forced
    Language : Russian
    Default : Yes
    Forced : No
    Menu
    00:00:00.000 : en:Chapter 1
    00:09:01.957 : en:Chapter 2
    00:13:04.991 : en:Chapter 3
    00:21:03.345 : en:Chapter 4
    00:27:53.380 : en:Chapter 5
    00:31:57.289 : en:Chapter 6
    00:35:08.395 : en:Chapter 7
    00:42:58.448 : en:Chapter 8
    00:52:04.621 : en:Chapter 9
    01:05:39.101 : en:Chapter 10
    01:16:41.637 : en:Chapter 11
    01:22:28.777 : en:Chapter 12
    01:29:29.488 : en:Chapter 13
    01:34:09.769 : en:Chapter 14
    01:45:38.582 : en:Chapter 15
    01:55:54.322 : en:Chapter 16
    02:02:35.055 : en:Chapter 17
    02:12:14.176 : en:Chapter 18
    02:18:29.384 : en:Chapter 19

    x264

    x264 [info]: frame I:1860 Avg QP:15.54 size: 50811
    x264 [info]: frame P:49271 Avg QP:17.08 size: 19043
    x264 [info]: frame B:161710 Avg QP:20.12 size: 5414
    x264 [info]: consecutive B-frames: 3.5% 3.5% 9.0% 20.9% 16.9% 33.6% 6.1% 1.8% 1.8% 0.9% 0.7% 0.3% 0.5% 0.6%
    x264 [info]: mb I I16..4: 6.3% 72.7% 21.0%
    x264 [info]: mb P I16..4: 1.7% 14.2% 2.9% P16..4: 36.2% 26.5% 12.8% 0.0% 0.0% skip: 5.7%
    x264 [info]: mb B I16..4: 0.1% 0.9% 0.3% B16..8: 39.0% 11.7% 2.7% direct: 4.1% skip:41.1% L0:43.7% L1:45.1% BI:11.2%
    x264 [info]: 8x8 transform intra:74.3% inter:65.2%
    x264 [info]: coded y,uvDC,uvAC intra: 83.8% 73.5% 47.4% inter: 17.6% 12.2% 2.0%
    x264 [info]: i16 v,h,dc,p: 24% 17% 6% 53%
    x264 [info]: i8 v,h,dc,ddl,ddr,vr,hd,vl,hu: 11% 12% 6% 9% 12% 12% 13% 11% 14%
    x264 [info]: i4 v,h,dc,ddl,ddr,vr,hd,vl,hu: 10% 11% 3% 9% 15% 13% 14% 10% 13%
    x264 [info]: i8c dc,h,v,p: 36% 32% 19% 14%
    x264 [info]: Weighted P-Frames: Y:4.1% UV:1.7%
    x264 [info]: ref P L0: 50.7% 10.1% 15.2% 7.3% 5.0% 3.3% 2.8% 1.6% 1.5% 1.2% 1.2% 0.1% 0.0%
    x264 [info]: ref B L0: 74.6% 10.9% 5.3% 3.1% 2.0% 1.4% 1.1% 0.8% 0.5% 0.2%
    x264 [info]: ref B L1: 94.0% 6.0%
    x264 [info]: kb/s:1719.67

    Скриншоты

    с названием

    СравнениеHDRip`a с .avi http://perectracker.org/http://perectracker.org/viewtopic.php?t=5275328 http://screenshotcomparison.com/comparison/182847 & http://screenshotcomparison.com/comparison/182860
    Торрент перезалит - добавлены форс. сабы на немецкую и африканскую речь
    Скачать .torrent

    Скачать торрент-файл бесплатно и на максимальной скорости!

    Как скачивать? · Что такое торрент? · Рейтинг и ограничения

    !ВНИМАНИЕ!
    Сайт не распространяет и не хранит электронные версии произведений, а занимается лишь лишь предоставлением доступа к создаваемому пользователями каталогу ссылок на торрент-файлы, которые содержат только списки хеш-сумм, убедительная просьба с жалобами обращаться напрямую к пользователю. Файлы для обмена на трекере предоставлены пользователями сайта, и администрация не несёт ответственности за их содержание. Просьба не заливать файлы, защищенные авторскими правами, а также файлы нелегального содержания!


    _________________
    [Профиль] [ЛС]
    Показать сообщения:    
    Ответить на тему

    Текущее время: Сегодня, в 20:25

    Часовой пояс: GMT + 2



    Вы не можете начинать темы
    Вы не можете отвечать на сообщения
    Вы не можете редактировать свои сообщения
    Вы не можете удалять свои сообщения
    Вы не можете голосовать в опросах
    Вы не можете прикреплять файлы к сообщениям
    Вы не можете скачивать файлы