BitTorrentTracker PerecTracker.org
BitTorrentTracker PerecTracker.org
    
Регистрация  ·  Вход
 
 · 
Забыли пароль?

  • Мы - дорожные пираты / Мы - Разбойниковы / Me Rosvolat / We Are the Pirates of the Roads (Марьют Комулайнен / Marjut Komulainen) [2015, Финляндия, Германия, Швеция, комедия, семейный, BDRemux 1080p] AVO (Живов) + Original Fin

    Ответить на тему
     
    Автор Сообщение

    Light

    Создавать темы 01-Сен-2016 00:42

           

    [Цитировать]

    Мы - дорожные пираты / Мы - Разбойниковы / Me Rosvolat / We Are the Pirates of the Roads
    Страна: Финляндия, Германия, Швеция
    Студия: Bright Moving Pictures, Kinoproduction
    Жанр: Комедия, семейный
    Год выпуска: 2015
    Продолжительность: 01:24:17
    Перевод 1: Авторский (одноголосый закадровый) Юрий Живов
    Cубтитры: нет
    Оригинальная аудиодорожка: финский
    Режиссер: Марьют Комулайнен / Marjut Komulainen
    В ролях: Сирку Ульгрен, Кари Вяянянен, Лота Лехтикари, Юсси Ватанен, Илона Хухта, Юсси Ватанен, Мио Мяятя, Пекка Стрэндж, Мерья Пеннанен, Кииа Кокко, Каи Паавилайнен
    Описание: Экранизация одноимённого романа финской писательницы Сири Колу. Каникулы у бабушки - самый неудачный из всех возможных планов на лето. Но для Вильи он так и остался планом: ее похитили прямо на дороге. Самые настоящие разбойники. Правда, очень странные. Потому что деньги и прочие традиционные ценности их мало волнуют. Им бы побольше сладостей, еды, одежды, игр и всяких полезных мелочей - вот это правильная добыча. А Вилья зачем? "Пригодится. Слово атамана". И, похоже, Вилье такие каникулы пришлись по душе: погони, приключения, свежий воздух, море и свобода - отличный рецепт незабываемого лета.
    Дополнительная информация:
    Автор релиза - ylnian
    Заказ перевода у Юрия Живова (август 2016) - ylnian
    За сборку дороги спасибо rammzez
    Источник - Blu-Ray (FIN) - Me.Rosvolat.BluRay.HUBAA
    Перевод - Авторский одноголосый (Юрий Живов)


    Сэмпл: https://yadi.sk/i/PxVlNFhZuchvp
    Качество видео: BDRemux 1080p
    Формат видео: BDAV
    Видео: MPEG-4, 1920x1080, 24813 kbps, 23.976 fps
    Аудио 1: Русский DTS-HD MA 5.1, 48 kHz, 24 bit, 3689 kbps (DTS Core: 5.1 / 48 kHz / 768 kbps / 24-bit)
    Аудио 2: Финский DTS-HD MA 5.1, 48 kHz, 24 bit, 3644 kbps (DTS Core: 5.1 / 48 kHz / 768 kbps / 24-bit)

    MediaInfo

    Disc Title: Me.Rosvolat.2015.BDRemux-ylnian
    Disc Size: 21 426 572 296 bytes
    Protection: AACS
    BD-Java: No
    BDInfo: 0.5.8
    Notes:
    BDINFO HOME:
    Cinema Squid
    http://www.cinemasquid.com/blu-ray/tools/bdinfo
    INCLUDES FORUMS REPORT FOR:
    AVS Forum Blu-ray Audio and Video Specifications Thread
    http://www.avsforum.com/avs-vb/showthread.php?t=1155731
    ********************
    PLAYLIST: 00000.MPLS
    ********************
    <--- BEGIN FORUMS PASTE --->
    Total Video
    Title Codec Length Movie Size Disc Size Bitrate Bitrate Main Audio Track Secondary Audio Track
    ----- ------ ------- -------------- -------------- ------- ------- ------------------ ---------------------
    00000.MPLS AVC 1:24:16 21 426 494 976 21 426 572 296 33,90 24,81 DTS-HD Master 5.1 3689Kbps (48kHz/24-bit)
    DISC INFO:
    Disc Title: Me.Rosvolat.2015.BDRemux-ylnian
    Disc Size: 21 426 572 296 bytes
    Protection: AACS
    BD-Java: No
    BDInfo: 0.5.8
    PLAYLIST REPORT:
    Name: 00000.MPLS
    Length: 1:24:16.968 (h:m:s.ms)
    Size: 21 426 494 976 bytes
    Total Bitrate: 33,90 Mbps
    VIDEO:
    Codec Bitrate Description
    ----- ------- -----------
    MPEG-4 AVC Video 24813 kbps 1080p / 23,976 fps / 16:9 / High Profile 4.1
    AUDIO:
    Codec Language Bitrate Description
    ----- -------- ------- -----------
    DTS-HD Master Audio Russian 3689 kbps 5.1 / 48 kHz / 3689 kbps / 24-bit (DTS Core: 5.1 / 48 kHz / 768 kbps / 24-bit)
    DTS-HD Master Audio Finnish 3644 kbps 5.1 / 48 kHz / 3644 kbps / 24-bit (DTS Core: 5.1 / 48 kHz / 768 kbps / 24-bit)
    FILES:
    Name Time In Length Size Total Bitrate
    ---- ------- ------ ---- -------------
    00000.M2TS 0:00:00.000 1:24:16.968 21 426 494 976 33 896
    CHAPTERS:
    Number Time In Length Avg Video Rate Max 1-Sec Rate Max 1-Sec Time Max 5-Sec Rate Max 5-Sec Time Max 10Sec Rate Max 10Sec Time Avg Frame Size Max Frame Size Max Frame Time
    ------ ------- ------ -------------- -------------- -------------- -------------- -------------- -------------- -------------- -------------- -------------- --------------
    1 0:00:00.000 0:06:50.701 25 218 kbps 43 821 kbps 00:00:22.814 37 667 kbps 00:02:52.505 34 697 kbps 00:02:47.208 131 461 bytes 452 897 bytes 00:00:27.527
    2 0:06:50.701 0:08:08.989 26 799 kbps 43 800 kbps 00:13:03.657 39 908 kbps 00:06:57.667 35 070 kbps 00:06:57.667 139 717 bytes 461 898 bytes 00:10:50.483
    3 0:14:59.690 0:09:03.292 27 633 kbps 45 955 kbps 00:21:06.139 37 655 kbps 00:20:58.924 36 780 kbps 00:20:57.673 144 064 bytes 456 661 bytes 00:20:42.783
    4 0:24:02.983 0:09:31.069 26 483 kbps 42 621 kbps 00:29:56.419 37 457 kbps 00:29:52.415 34 821 kbps 00:26:58.700 138 069 bytes 456 542 bytes 00:29:04.826
    5 0:33:34.053 0:06:25.719 21 249 kbps 39 910 kbps 00:39:01.839 35 700 kbps 00:38:59.253 34 705 kbps 00:38:52.580 110 785 bytes 499 526 bytes 00:39:02.548
    6 0:39:59.772 0:05:02.594 24 853 kbps 40 858 kbps 00:41:13.095 35 905 kbps 00:43:18.554 33 981 kbps 00:43:14.591 129 574 bytes 443 082 bytes 00:43:09.920
    7 0:45:02.366 0:07:55.099 23 178 kbps 44 356 kbps 00:52:06.164 37 043 kbps 00:47:30.639 36 072 kbps 00:47:25.634 120 837 bytes 439 422 bytes 00:45:46.577
    8 0:52:57.465 0:05:26.659 25 340 kbps 42 817 kbps 00:54:22.133 36 544 kbps 00:54:18.213 35 679 kbps 00:54:19.005 132 111 bytes 423 501 bytes 00:56:13.870
    9 0:58:24.125 0:08:02.482 26 812 kbps 44 889 kbps 01:04:03.673 37 692 kbps 01:04:09.512 36 277 kbps 01:00:12.608 139 787 bytes 457 262 bytes 01:06:25.022
    10 1:06:26.607 0:08:41.813 24 967 kbps 44 451 kbps 01:12:07.614 37 807 kbps 01:12:04.278 34 178 kbps 01:09:44.930 130 164 bytes 459 800 bytes 01:11:35.249
    11 1:15:08.420 0:05:57.274 25 512 kbps 44 669 kbps 01:20:53.557 40 372 kbps 01:20:51.555 37 146 kbps 01:20:47.717 133 010 bytes 486 529 bytes 01:17:37.611
    12 1:21:05.694 0:03:10.272 9 437 kbps 16 601 kbps 01:23:09.609 16 471 kbps 01:23:07.440 16 376 kbps 01:23:05.480 49 203 bytes 228 479 bytes 01:23:12.821
    13 1:24:15.966 0:00:01.001 77 kbps 77 kbps 01:24:15.967 0 kbps 00:00:00.000 0 kbps 00:00:00.000 400 bytes 2 428 bytes 01:24:16.968
    STREAM DIAGNOSTICS:
    File PID Type Codec Language Seconds Bitrate Bytes Packets
    ---- --- ---- ----- -------- -------------- -------------- ------------- -----
    00000.M2TS 4113 (0x1011) 0x1B AVC 5056,927 24 813 15 684 805 298 85 314 455
    00000.M2TS 4352 (0x1100) 0x86 DTS-HD MA rus (Russian) 5056,927 3 689 2 332 077 928 13 164 913
    00000.M2TS 4353 (0x1101) 0x86 DTS-HD MA fin (Finnish) 5056,927 3 644 2 303 677 000 13 010 598
    <---- END FORUMS PASTE ---->
    QUICK SUMMARY:
    Disc Title: Me.Rosvolat.2015.BDRemux-ylnian
    Disc Size: 21 426 572 296 bytes
    Protection: AACS
    BD-Java: No
    Playlist: 00000.MPLS
    Size: 21 426 494 976 bytes
    Length: 1:24:16.968
    Total Bitrate: 33,90 Mbps
    Video: MPEG-4 AVC Video / 24813 kbps / 1080p / 23,976 fps / 16:9 / High Profile 4.1
    Audio: Russian / DTS-HD Master Audio / 5.1 / 48 kHz / 3689 kbps / 24-bit (DTS Core: 5.1 / 48 kHz / 768 kbps / 24-bit)
    Audio: Finnish / DTS-HD Master Audio / 5.1 / 48 kHz / 3644 kbps / 24-bit (DTS Core: 5.1 / 48 kHz / 768 kbps / 24-bit)
    Исходник для релиза
    Ссылка на финский БлюРей - http://www.discshop.fi/elokuvat/bluray/me_rosvolat_blu_ray/P106705

    BD-info финского диска

    Disc Title: ME ROSVOLAT
    Disc Size: 21 040 273 199 bytes
    Protection: AACS
    BD-Java: No
    BDInfo: 0.5.8
    ********************
    PLAYLIST: 00000.MPLS
    ********************
    <--- BEGIN FORUMS PASTE --->
    Total   Video
    Title                                                           Codec   Length  Movie Size      Disc Size       Bitrate Bitrate Main Audio Track                          Secondary Audio Track
    -----                                                           ------  ------- --------------  --------------  ------- ------- ------------------                        ---------------------
    00000.MPLS                                                      AVC     1:24:16 20 463 496 320  21 040 273 199  32,38   24,81   DTS-HD Master 5.1 3645Kbps (48kHz/24-bit) LPCM 2.0 2304Kbps (48kHz/24-bit)
    DISC INFO:
    Disc Title:     ME ROSVOLAT
    Disc Size:      21 040 273 199 bytes
    Protection:     AACS
    BD-Java:        No
    BDInfo:         0.5.8
    PLAYLIST REPORT:
    Name:                   00000.MPLS
    Length:                 1:24:16.593 (h:m:s.ms)
    Size:                   20 463 496 320 bytes
    Total Bitrate:          32,38 Mbps
    VIDEO:
    Codec                   Bitrate             Description
    -----                   -------             -----------
    MPEG-4 AVC Video        24815 kbps          1080p / 23,976 fps / 16:9 / High Profile 4.1
    AUDIO:
    Codec                           Language        Bitrate         Description
    -----                           --------        -------         -----------
    DTS-HD Master Audio             Finnish         3645 kbps       5.1 / 48 kHz / 3645 kbps / 24-bit (DTS Core: 5.1 / 48 kHz / 768 kbps / 24-bit)
    LPCM Audio                      Finnish         2304 kbps       2.0 / 48 kHz / 2304 kbps / 24-bit
    FILES:
    Name            Time In         Length          Size            Total Bitrate
    ----            -------         ------          ----            -------------
    00000.M2TS      0:00:00.000     1:24:15.967     20 463 482 880  32 379
    00006.M2TS      1:24:15.967     0:00:00.625     13 440          161
    CHAPTERS:
    Number          Time In         Length          Avg Video Rate  Max 1-Sec Rate  Max 1-Sec Time  Max 5-Sec Rate  Max 5-Sec Time  Max 10Sec Rate  Max 10Sec Time  Avg Frame Size  Max Frame Size  Max Frame Time
    ------          -------         ------          --------------  --------------  --------------  --------------  --------------  --------------  --------------  --------------  --------------  --------------
    1               0:00:00.000     0:06:50.701     25 218 kbps     43 821 kbps     00:00:22.814    37 667 kbps     00:02:52.505    34 697 kbps     00:02:47.208    131 461 bytes   452 897 bytes   00:00:27.527
    2               0:06:50.701     0:08:08.988     26 799 kbps     43 800 kbps     00:13:03.657    39 908 kbps     00:06:57.667    35 070 kbps     00:06:57.667    139 717 bytes   461 898 bytes   00:10:50.483
    3               0:14:59.690     0:09:03.292     27 633 kbps     45 955 kbps     00:21:06.139    37 655 kbps     00:20:58.924    36 780 kbps     00:20:57.673    144 064 bytes   456 661 bytes   00:20:42.783
    4               0:24:02.983     0:09:31.070     26 483 kbps     42 621 kbps     00:29:56.419    37 457 kbps     00:29:52.415    34 821 kbps     00:26:58.700    138 069 bytes   456 542 bytes   00:29:04.826
    5               0:33:34.053     0:06:25.718     21 249 kbps     39 910 kbps     00:39:01.839    35 700 kbps     00:38:59.253    34 705 kbps     00:38:52.580    110 785 bytes   499 526 bytes   00:39:02.548
    6               0:39:59.772     0:05:02.593     24 853 kbps     40 858 kbps     00:41:13.095    35 905 kbps     00:43:18.554    33 981 kbps     00:43:14.592    129 574 bytes   443 082 bytes   00:43:09.920
    7               0:45:02.366     0:07:55.099     23 178 kbps     44 356 kbps     00:52:06.164    37 043 kbps     00:47:30.639    36 072 kbps     00:47:25.634    120 837 bytes   439 422 bytes   00:45:46.577
    8               0:52:57.465     0:05:26.659     25 340 kbps     42 817 kbps     00:54:22.133    36 544 kbps     00:54:18.213    35 679 kbps     00:54:19.005    132 111 bytes   423 501 bytes   00:56:13.870
    9               0:58:24.125     0:08:02.482     26 812 kbps     44 889 kbps     01:04:03.673    37 692 kbps     01:04:09.512    36 277 kbps     01:00:12.609    139 787 bytes   457 262 bytes   01:06:25.022
    10              1:06:26.607     0:08:41.812     24 967 kbps     44 451 kbps     01:12:07.614    37 807 kbps     01:12:04.278    34 178 kbps     01:09:44.930    130 164 bytes   459 800 bytes   01:11:35.249
    11              1:15:08.420     0:05:57.273     25 512 kbps     44 669 kbps     01:20:53.557    40 372 kbps     01:20:51.555    37 146 kbps     01:20:47.717    133 010 bytes   486 529 bytes   01:17:37.611
    12              1:21:05.694     0:03:10.899     9 407 kbps      16 601 kbps     01:23:09.609    16 471 kbps     01:23:07.440    16 376 kbps     01:23:05.480    49 042 bytes    228 479 bytes   01:23:12.821
    STREAM DIAGNOSTICS:
    File            PID             Type            Codec           Language                Seconds                 Bitrate                 Bytes           Packets
    ----            ---             ----            -----           --------                --------------          --------------          -------------   -----
    00000.M2TS      4113 (0x1011)   0x1B            AVC                                     5055,884                24 818                  15 684 793 262  85 314 381
    00000.M2TS      4352 (0x1100)   0x86            DTS-HD MA       fin (Finnish)           5055,884                3 645                   2 303 677 000   13 010 598
    00000.M2TS      4353 (0x1101)   0x80            LPCM            fin (Finnish)           5055,884                2 310                   1 459 574 984   8 086 288
    00006.M2TS      4113 (0x1011)   0x1B            AVC                                     0,959                   100                     12 036          74
    <---- END FORUMS PASTE ---->
    QUICK SUMMARY:
    Disc Title: ME ROSVOLAT
    Disc Size: 21 040 273 199 bytes
    Protection: AACS
    BD-Java: No
    Playlist: 00000.MPLS
    Size: 20 463 496 320 bytes
    Length: 1:24:16.593
    Total Bitrate: 32,38 Mbps
    Video: MPEG-4 AVC Video / 24815 kbps / 1080p / 23,976 fps / 16:9 / High Profile 4.1
    Audio: Finnish / DTS-HD Master Audio / 5.1 / 48 kHz / 3645 kbps / 24-bit (DTS Core: 5.1 / 48 kHz / 768 kbps / 24-bit)
    Audio: Finnish / LPCM Audio / 2.0 / 48 kHz / 2304 kbps / 24-bit
    ********************
    PLAYLIST: 00001.MPLS
    ********************
    <--- BEGIN FORUMS PASTE --->
    Total   Video
    Title                                                           Codec   Length  Movie Size      Disc Size       Bitrate Bitrate Main Audio Track                          Secondary Audio Track
    -----                                                           ------  ------- --------------  --------------  ------- ------- ------------------                        ---------------------
    00001.MPLS                                                      AVC     0:01:29 359 836 800     21 040 273 199  32,07   24,57   DTS-HD Master 5.1 3597Kbps (48kHz/24-bit) LPCM 2.0 2304Kbps (48kHz/24-bit)
    DISC INFO:
    Disc Title:     ME ROSVOLAT
    Disc Size:      21 040 273 199 bytes
    Protection:     AACS
    BD-Java:        No
    BDInfo:         0.5.8
    PLAYLIST REPORT:
    Name:                   00001.MPLS
    Length:                 0:01:29.756 (h:m:s.ms)
    Size:                   359 836 800 bytes
    Total Bitrate:          32,07 Mbps
    VIDEO:
    Codec                   Bitrate             Description
    -----                   -------             -----------
    MPEG-4 AVC Video        24575 kbps          1080p / 23,976 fps / 16:9 / High Profile 4.1
    AUDIO:
    Codec                           Language        Bitrate         Description
    -----                           --------        -------         -----------
    DTS-HD Master Audio             Finnish         3597 kbps       5.1 / 48 kHz / 3597 kbps / 24-bit (DTS Core: 5.1 / 48 kHz / 768 kbps / 24-bit)
    LPCM Audio                      Finnish         2304 kbps       2.0 / 48 kHz / 2304 kbps / 24-bit
    FILES:
    Name            Time In         Length          Size            Total Bitrate
    ----            -------         ------          ----            -------------
    00001.M2TS      0:00:00.000     0:01:29.130     359 823 360     32 296
    00006.M2TS      0:01:29.130     0:00:00.625     13 440          161
    CHAPTERS:
    Number          Time In         Length          Avg Video Rate  Max 1-Sec Rate  Max 1-Sec Time  Max 5-Sec Rate  Max 5-Sec Time  Max 10Sec Rate  Max 10Sec Time  Avg Frame Size  Max Frame Size  Max Frame Time
    ------          -------         ------          --------------  --------------  --------------  --------------  --------------  --------------  --------------  --------------  --------------  --------------
    1               0:00:00.000     0:01:29.756     24 586 kbps     45 106 kbps     00:00:36.536    32 969 kbps     00:00:00.834    29 598 kbps     00:00:00.625    128 121 bytes   441 215 bytes   00:00:46.880
    STREAM DIAGNOSTICS:
    File            PID             Type            Codec           Language                Seconds                 Bitrate                 Bytes           Packets
    ----            ---             ----            -----           --------                --------------          --------------          -------------   -----
    00001.M2TS      4113 (0x1011)   0x1B            AVC                                     88,964                  24 804                  275 837 246     1 500 392
    00001.M2TS      4352 (0x1100)   0x86            DTS-HD MA       fin (Finnish)           88,964                  3 630                   40 370 448      228 042
    00001.M2TS      4353 (0x1101)   0x80            LPCM            fin (Finnish)           88,964                  2 315                   25 742 188      142 616
    00006.M2TS      4113 (0x1011)   0x1B            AVC                                     0,959                   100                     12 036          74
    <---- END FORUMS PASTE ---->
    QUICK SUMMARY:
    Disc Title: ME ROSVOLAT
    Disc Size: 21 040 273 199 bytes
    Protection: AACS
    BD-Java: No
    Playlist: 00001.MPLS
    Size: 359 836 800 bytes
    Length: 0:01:29.756
    Total Bitrate: 32,07 Mbps
    Video: MPEG-4 AVC Video / 24575 kbps / 1080p / 23,976 fps / 16:9 / High Profile 4.1
    Audio: Finnish / DTS-HD Master Audio / 5.1 / 48 kHz / 3597 kbps / 24-bit (DTS Core: 5.1 / 48 kHz / 768 kbps / 24-bit)
    Audio: Finnish / LPCM Audio / 2.0 / 48 kHz / 2304 kbps / 24-bit
    Есть также немецкий релиз - http://www.blu-ray.com/movies/Vilja-und-die-Rauber-Blu-ray/159177/
    Но на нём картинка чересчур осветлена - http://screenshotcomparison.com/comparison.php?id=166542
    Да и оригинальной финской дороги нет:

    BD-info немецкого диска

    Disc Title: Vilja und die Raeuber
    Disc Size: 16 743 140 795 bytes
    Protection: AACS
    BD-Java: Yes
    Extras: 50Hz Content
    BDInfo: 0.5.8
    Notes:
    BDINFO HOME:
    Cinema Squid
    http://www.cinemasquid.com/blu-ray/tools/bdinfo
    INCLUDES FORUMS REPORT FOR:
    AVS Forum Blu-ray Audio and Video Specifications Thread
    http://www.avsforum.com/avs-vb/showthread.php?t=1155731
    ********************
    PLAYLIST: 00002.MPLS
    ********************
    <--- BEGIN FORUMS PASTE --->
    Total   Video
    Title                                                           Codec   Length  Movie Size      Disc Size       Bitrate Bitrate Main Audio Track                          Secondary Audio Track
    -----                                                           ------  ------- --------------  --------------  ------- ------- ------------------                        ---------------------
    00002.MPLS                                                      AVC     1:24:22 15 266 144 256  16 743 140 795  24,13   19,09   DTS-HD Master 5.1 3720Kbps (48kHz/24-bit)
    DISC INFO:
    Disc Title:     Vilja und die Raeuber
    Disc Size:      16 743 140 795 bytes
    Protection:     AACS
    BD-Java:        Yes
    Extras:         50Hz Content
    BDInfo:         0.5.8
    PLAYLIST REPORT:
    Name:                   00002.MPLS
    Length:                 1:24:22.166 (h:m:s.ms)
    Size:                   15 266 144 256 bytes
    Total Bitrate:          24,13 Mbps
    VIDEO:
    Codec                   Bitrate             Description
    -----                   -------             -----------
    MPEG-4 AVC Video        19085 kbps          1080p / 24 fps / 16:9 / High Profile 4.1
    AUDIO:
    Codec                           Language        Bitrate         Description
    -----                           --------        -------         -----------
    DTS-HD Master Audio             German          3720 kbps       5.1 / 48 kHz / 3720 kbps / 24-bit (DTS Core: 5.1 / 48 kHz / 1509 kbps / 24-bit)
    FILES:
    Name            Time In         Length          Size            Total Bitrate
    ----            -------         ------          ----            -------------
    00002.M2TS      0:00:00.000     1:24:22.166     15 266 144 256  24 126
    CHAPTERS:
    Number          Time In         Length          Avg Video Rate  Max 1-Sec Rate  Max 1-Sec Time  Max 5-Sec Rate  Max 5-Sec Time  Max 10Sec Rate  Max 10Sec Time  Avg Frame Size  Max Frame Size  Max Frame Time
    ------          -------         ------          --------------  --------------  --------------  --------------  --------------  --------------  --------------  --------------  --------------  --------------
    1               0:00:00.000     0:10:13.000     18 486 kbps     33 389 kbps     00:00:44.166    26 301 kbps     00:00:35.666    24 401 kbps     00:02:58.083    96 274 bytes    818 097 bytes   00:02:58.166
    2               0:10:13.000     0:10:36.000     19 731 kbps     30 951 kbps     00:12:52.291    26 391 kbps     00:12:48.625    22 772 kbps     00:12:43.666    102 767 bytes   529 964 bytes   00:12:41.541
    3               0:20:49.000     0:10:31.000     20 106 kbps     25 544 kbps     00:30:12.125    23 058 kbps     00:28:14.958    22 135 kbps     00:21:40.833    104 718 bytes   340 616 bytes   00:30:12.166
    4               0:31:20.000     0:11:18.000     19 184 kbps     36 799 kbps     00:36:03.916    27 347 kbps     00:36:02.875    22 831 kbps     00:41:46.583    99 914 bytes    725 109 bytes   00:36:02.916
    5               0:42:38.000     0:10:24.000     18 460 kbps     40 496 kbps     00:51:38.333    25 335 kbps     00:42:59.208    23 155 kbps     00:42:57.958    96 145 bytes    782 258 bytes   00:43:01.666
    6               0:53:02.000     0:08:23.000     19 913 kbps     30 985 kbps     00:53:22.291    24 200 kbps     00:53:22.291    23 359 kbps     00:53:22.291    103 716 bytes   540 500 bytes   00:53:22.333
    7               1:01:25.000     0:10:26.000     19 433 kbps     33 468 kbps     01:10:59.875    24 246 kbps     01:11:38.250    22 474 kbps     01:11:38.166    101 211 bytes   599 957 bytes   01:06:33.333
    8               1:11:51.000     0:09:21.000     19 463 kbps     33 127 kbps     01:16:09.541    25 576 kbps     01:16:08.375    22 886 kbps     01:16:08.375    101 368 bytes   685 951 bytes   01:17:39.083
    9               1:21:12.000     0:03:10.166     12 727 kbps     20 325 kbps     01:23:17.125    19 548 kbps     01:23:17.375    19 544 kbps     01:23:14.083    66 303 bytes    292 359 bytes   01:23:19.125
    STREAM DIAGNOSTICS:
    File            PID             Type            Codec           Language                Seconds                 Bitrate                 Bytes           Packets
    ----            ---             ----            -----           --------                --------------          --------------          -------------   -----
    00002.M2TS      4113 (0x1011)   0x1B            AVC                                     5062,000                19 086                  12 076 646 120  65 705 115
    00002.M2TS      4352 (0x1100)   0x86            DTS-HD MA       deu (German)            5062,000                3 720                   2 353 664 668   13 581 061
    <---- END FORUMS PASTE ---->
    QUICK SUMMARY:
    Disc Title: Vilja und die Raeuber
    Disc Size: 16 743 140 795 bytes
    Protection: AACS
    BD-Java: Yes
    Playlist: 00002.MPLS
    Size: 15 266 144 256 bytes
    Length: 1:24:22.166
    Total Bitrate: 24,13 Mbps
    Video: MPEG-4 AVC Video / 19085 kbps / 1080p / 24 fps / 16:9 / High Profile 4.1
    Audio: German / DTS-HD Master Audio / 5.1 / 48 kHz / 3720 kbps / 24-bit (DTS Core: 5.1 / 48 kHz / 1509 kbps / 24-bit)
    ********************
    PLAYLIST: 01002.MPLS
    ********************
    <--- BEGIN FORUMS PASTE --->
    Total   Video
    Title                                                           Codec   Length  Movie Size      Disc Size       Bitrate Bitrate Main Audio Track                          Secondary Audio Track
    -----                                                           ------  ------- --------------  --------------  ------- ------- ------------------                        ---------------------
    01002.MPLS                                                      AVC     1:24:22 15 266 144 256  16 743 140 795  24,13   19,09   DTS-HD Master 5.1 3720Kbps (48kHz/24-bit)
    DISC INFO:
    Disc Title:     Vilja und die Raeuber
    Disc Size:      16 743 140 795 bytes
    Protection:     AACS
    BD-Java:        Yes
    Extras:         50Hz Content
    BDInfo:         0.5.8
    PLAYLIST REPORT:
    Name:                   01002.MPLS
    Length:                 1:24:22.166 (h:m:s.ms)
    Size:                   15 266 144 256 bytes
    Total Bitrate:          24,13 Mbps
    VIDEO:
    Codec                   Bitrate             Description
    -----                   -------             -----------
    MPEG-4 AVC Video        19085 kbps          1080p / 24 fps / 16:9 / High Profile 4.1
    AUDIO:
    Codec                           Language        Bitrate         Description
    -----                           --------        -------         -----------
    DTS-HD Master Audio             German          3720 kbps       5.1 / 48 kHz / 3720 kbps / 24-bit (DTS Core: 5.1 / 48 kHz / 1509 kbps / 24-bit)
    FILES:
    Name            Time In         Length          Size            Total Bitrate
    ----            -------         ------          ----            -------------
    00002.M2TS      0:00:00.000     1:24:22.166     15 266 144 256  24 126
    CHAPTERS:
    Number          Time In         Length          Avg Video Rate  Max 1-Sec Rate  Max 1-Sec Time  Max 5-Sec Rate  Max 5-Sec Time  Max 10Sec Rate  Max 10Sec Time  Avg Frame Size  Max Frame Size  Max Frame Time
    ------          -------         ------          --------------  --------------  --------------  --------------  --------------  --------------  --------------  --------------  --------------  --------------
    1               0:00:00.000     0:10:13.000     18 486 kbps     33 389 kbps     00:00:44.166    26 301 kbps     00:00:35.666    24 401 kbps     00:02:58.083    96 274 bytes    818 097 bytes   00:02:58.166
    2               0:10:13.000     0:10:36.000     19 731 kbps     30 951 kbps     00:12:52.291    26 391 kbps     00:12:48.625    22 772 kbps     00:12:43.666    102 767 bytes   529 964 bytes   00:12:41.541
    3               0:20:49.000     0:10:31.000     20 106 kbps     25 544 kbps     00:30:12.125    23 058 kbps     00:28:14.958    22 135 kbps     00:21:40.833    104 718 bytes   340 616 bytes   00:30:12.166
    4               0:31:20.000     0:11:18.000     19 184 kbps     36 799 kbps     00:36:03.916    27 347 kbps     00:36:02.875    22 831 kbps     00:41:46.583    99 914 bytes    725 109 bytes   00:36:02.916
    5               0:42:38.000     0:10:24.000     18 460 kbps     40 496 kbps     00:51:38.333    25 335 kbps     00:42:59.208    23 155 kbps     00:42:57.958    96 145 bytes    782 258 bytes   00:43:01.666
    6               0:53:02.000     0:08:23.000     19 913 kbps     30 985 kbps     00:53:22.291    24 200 kbps     00:53:22.291    23 359 kbps     00:53:22.291    103 716 bytes   540 500 bytes   00:53:22.333
    7               1:01:25.000     0:10:26.000     19 433 kbps     33 468 kbps     01:10:59.875    24 246 kbps     01:11:38.250    22 474 kbps     01:11:38.166    101 211 bytes   599 957 bytes   01:06:33.333
    8               1:11:51.000     0:09:21.000     19 463 kbps     33 127 kbps     01:16:09.541    25 576 kbps     01:16:08.375    22 886 kbps     01:16:08.375    101 368 bytes   685 951 bytes   01:17:39.083
    9               1:21:12.000     0:03:10.166     12 727 kbps     20 325 kbps     01:23:17.125    19 548 kbps     01:23:17.375    19 544 kbps     01:23:14.083    66 303 bytes    292 359 bytes   01:23:19.125
    STREAM DIAGNOSTICS:
    File            PID             Type            Codec           Language                Seconds                 Bitrate                 Bytes           Packets
    ----            ---             ----            -----           --------                --------------          --------------          -------------   -----
    00002.M2TS      4113 (0x1011)   0x1B            AVC                                     5062,000                19 086                  12 076 646 120  65 705 115
    00002.M2TS      4352 (0x1100)   0x86            DTS-HD MA       deu (German)            5062,000                3 720                   2 353 664 668   13 581 061
    <---- END FORUMS PASTE ---->
    QUICK SUMMARY:
    Disc Title: Vilja und die Raeuber
    Disc Size: 16 743 140 795 bytes
    Protection: AACS
    BD-Java: Yes
    Playlist: 01002.MPLS
    Size: 15 266 144 256 bytes
    Length: 1:24:22.166
    Total Bitrate: 24,13 Mbps
    Video: MPEG-4 AVC Video / 19085 kbps / 1080p / 24 fps / 16:9 / High Profile 4.1
    Audio: German / DTS-HD Master Audio / 5.1 / 48 kHz / 3720 kbps / 24-bit (DTS Core: 5.1 / 48 kHz / 1509 kbps / 24-bit)
    Поэтому за основу релиза взят именно оригинальный финский BD!

    Скриншот c названием фильма

    Скриншоты

    Скачать .torrent

    Скачать торрент-файл бесплатно и на максимальной скорости!

    Как скачивать? · Что такое торрент? · Рейтинг и ограничения

    !ВНИМАНИЕ!
    Сайт не распространяет и не хранит электронные версии произведений, а занимается лишь лишь предоставлением доступа к создаваемому пользователями каталогу ссылок на торрент-файлы, которые содержат только списки хеш-сумм, убедительная просьба с жалобами обращаться напрямую к пользователю. Файлы для обмена на трекере предоставлены пользователями сайта, и администрация не несёт ответственности за их содержание. Просьба не заливать файлы, защищенные авторскими правами, а также файлы нелегального содержания!


    _________________
    [Профиль] [ЛС]
    Показать сообщения:    
    Ответить на тему

    Текущее время: Сегодня, в 06:12

    Часовой пояс: GMT + 2



    Вы не можете начинать темы
    Вы не можете отвечать на сообщения
    Вы не можете редактировать свои сообщения
    Вы не можете удалять свои сообщения
    Вы не можете голосовать в опросах
    Вы не можете прикреплять файлы к сообщениям
    Вы не можете скачивать файлы