BitTorrentTracker PerecTracker.org
BitTorrentTracker PerecTracker.org
    
Регистрация  ·  Вход
 
 · 
Забыли пароль?

  • Сентябрь в Ширазе / Septembers of Shiraz (Уэйн Блэр / Wayne Blair) [2015, США, Триллер, HDRip] MVO + Original + Subs (eng)

    Ответить на тему
     
    Автор Сообщение

    Light

    Создавать темы 31-Авг-2016 20:30

           

    [Цитировать]

    Сентябрь в Ширазе / Septembers of Shiraz
    Страна: США
    Жанр: триллер
    Год выпуска: 2015
    Продолжительность: 01:49:54
    Перевод: Любительский (многоголосый закадровый) - Студия Пиратского Дубляжа
    Cубтитры: Английские (форсированные, полные, SDH)
    Оригинальная аудиодорожка: Английский
    Режиссер: Уэйн Блэр / Wayne Blair
    В ролях: Сальма Хайек, Эдриан Броуди, Шоре Агдашлу, Габриэлла Райт, Алон Абутбул, Энтони Азизи, Башар Рахаль, Нассер Мемарзиа, Бен Юсеф, Армин Амири
    Описание: Действие картины разворачивается во время иранской революции 1979 года. Главная героиня — богатая еврейская девушка, отец которой торговал ювелирными изделиями с зарубежными странами. Из-за этого власти страны обвинили его в шпионаже и заключили в тюрьму. Семья решила просить политического убежища в Америке.
    Сэмпл: http://multi-up.com/1115754
    Качество видео: HDRip
    Исходник: [Septembers.of.Shiraz.2015.1080p.BluRay.x264-PSYCHD[PRiME]]
    Формат видео: AVI
    Видео: 720x384 (1.88:1), 23.976 fps, XviD build 65 ~1695 kbps avg, 0.26 bit/pixel
    Аудио RUS: 48 kHz, AC3 Dolby Digital, 2/0 (L,R) ch, ~192 kbps
    Аудио ENG: 48 kHz, AC3 Dolby Digital, 3/2 (L,C,R,l,r) + LFE ch, ~448 kbps
    Формат субтитров: softsub (SRT)
    Rip by Ториял

    MediaInfo

    Format : AVI
    Format/Info : Audio Video Interleave
    File size : 1.46 GiB
    Duration : 1h 50mn
    Overall bit rate : 1 897 Kbps
    Writing application : VirtualDubMod 1.5.10.2 (build 2540/release)
    Writing library : VirtualDubMod build 2540/release
    Video
    ID : 0
    Format : MPEG-4 Visual
    Format profile : Advanced Simple@L5
    Format settings, BVOP : 1
    Format settings, QPel : No
    Format settings, GMC : No warppoints
    Format settings, Matrix : Custom
    Codec ID : XVID
    Codec ID/Hint : XviD
    Duration : 1h 50mn
    Bit rate : 1 696 Kbps
    Width : 720 pixels
    Height : 384 pixels
    Display aspect ratio : 1.85:1
    Frame rate : 23.976 (23976/1000) fps
    Color space : YUV
    Chroma subsampling : 4:2:0
    Bit depth : 8 bits
    Scan type : Progressive
    Compression mode : Lossy
    Bits/(Pixel*Frame) : 0.256
    Stream size : 1.30 GiB (89%)
    Writing library : XviD 65
    Audio
    ID : 1
    Format : AC-3
    Format/Info : Audio Coding 3
    Mode extension : CM (complete main)
    Format settings, Endianness : Big
    Codec ID : 2000
    Duration : 1h 50mn
    Bit rate mode : Constant
    Bit rate : 192 Kbps
    Channel(s) : 2 channels
    Channel positions : Front: L R
    Sampling rate : 48.0 KHz
    Frame rate : 31.250 fps (1536 spf)
    Compression mode : Lossy
    Stream size : 151 MiB (10%)
    Alignment : Split accross interleaves
    Interleave, duration : 42 ms (1.00 video frame)
    Interleave, preload duratio : 500 ms

    Скриншоты

    Скачать .torrent

    Скачать торрент-файл бесплатно и на максимальной скорости!

    Как скачивать? · Что такое торрент? · Рейтинг и ограничения

    !ВНИМАНИЕ!
    Сайт не распространяет и не хранит электронные версии произведений, а занимается лишь лишь предоставлением доступа к создаваемому пользователями каталогу ссылок на торрент-файлы, которые содержат только списки хеш-сумм, убедительная просьба с жалобами обращаться напрямую к пользователю. Файлы для обмена на трекере предоставлены пользователями сайта, и администрация не несёт ответственности за их содержание. Просьба не заливать файлы, защищенные авторскими правами, а также файлы нелегального содержания!


    _________________
    [Профиль] [ЛС]
    Показать сообщения:    
    Ответить на тему

    Текущее время: Сегодня, в 15:53

    Часовой пояс: GMT + 2



    Вы не можете начинать темы
    Вы не можете отвечать на сообщения
    Вы не можете редактировать свои сообщения
    Вы не можете удалять свои сообщения
    Вы не можете голосовать в опросах
    Вы не можете прикреплять файлы к сообщениям
    Вы не можете скачивать файлы