BitTorrentTracker PerecTracker.org
BitTorrentTracker PerecTracker.org
    
Регистрация  ·  Вход
 
 · 
Забыли пароль?

  • Чудесное прикосновение / The Carpenter\'s Miracle (Кристоффер Табори / Kristoffer Tabori) [2013, Канада, драма, DVDRip-AVC] VO + Sub Rus + Original Eng

    Ответить на тему
     
    Автор Сообщение

    Light

    Создавать темы 31-Авг-2016 20:30

           

    [Цитировать]

    Чудесное прикосновение / The Carpenter's Miracle
    Страна: Канада
    Жанр: драма
    Год выпуска: 2013
    Продолжительность: 01:27:19
    Перевод: Одноголосый закадровый
    Cубтитры: русские
    Оригинальная аудиодорожка: английский
    Режиссер: Кристоффер Табори / Kristoffer Tabori
    В ролях: Райан Грэнтхем / Ryan Grantham, Cameron Mathison, Michelle Harrison, Aaron Pearl, Marsha Regis
    Описание: Джош Кэри, плотник из небольшого городка вытаскивает из реки мальчика 12 лет по имени Люк Куинн, который к сожалению не подаёт признков жизни, поскольку слишком долго находился под водой. Мать посещает мальчика в отделение неотложной помощи , где Джош пытается утешить скорбящую маму. Джош молится за мальчика, он прикасается к нему. Люк возвращается к жизни, персонал больницы и люди в городе рассматривают это как чудо...
    Сэмпл: http://multi-up.com/1115821
    Качество видео: DVDRip-AVC
    Формат видео: MKV
    Видео: AVC at 924 Кбит/сек : 720 x 400 (1.800) at 23.976 fps
    Аудио 1: AC-3 at 192 Кбит/сек : 2 канала, 48,0 КГц Language : ru
    Аудио 2: AC-3 at 384 Кбит/сек : 6 каналов, 48,0 КГц Language : en
    Формат субтитров: softsub (SRT)
    Доп. информация о субтитрах: Русские внешние (r123)

    MediaInfo

    Общее
    Уникальный идентификатор : 177153469137336165809520048448793676985 (0x854684606D739CE18A67CD40407B0CB9)
    Полное имя : F:\С моей озвучкой\Чудесное прикосновение\The Carpenter's Miracle_2013 (1).mkv
    Формат : Matroska
    Версия формата : Version 4 / Version 2
    Размер файла : 956 Мбайт
    Продолжительность : 1 ч. 27 м.
    Режим общего битрейта : Переменный
    Общий поток : 1530 Кбит/сек
    Дата кодирования : UTC 2016-08-30 19:29:45
    Программа кодирования : mkvmerge v7.9.0 ('Birds') 64bit
    Библиотека кодирования : libebml v1.3.1 + libmatroska v1.4.2
    DURATION : 01:27:12.672000000
    NUMBER_OF_FRAMES : 163521
    NUMBER_OF_BYTES : 125584128
    _STATISTICS_WRITING_APP : mkvmerge v7.9.0 ('Birds') 64bit
    _STATISTICS_WRITING_DATE_UTC : 2016-08-30 19:29:45
    _STATISTICS_TAGS : BPS DURATION NUMBER_OF_FRAMES NUMBER_OF_BYTES
    Видео
    Идентификатор : 1
    Формат : AVC
    Формат/Информация : Advanced Video Codec
    Профиль формата : High@L4.1
    Параметр CABAC формата : Да
    Параметр ReFrames формата : 3 кадра
    Идентификатор кодека : V_MPEG4/ISO/AVC
    Продолжительность : 1 ч. 27 м.
    Вид битрейта : Переменный
    Битрейт : 924 Кбит/сек
    Максимальный битрейт : 40,0 Мбит/сек
    Ширина : 720 пикселей
    Высота : 400 пикселей
    Соотношение сторон : 16:9
    Режим частоты кадров : Постоянный
    Частота кадров : 23,976 кадра/сек
    Цветовое пространство : YUV
    Субдискретизация насыщенности : 4:2:0
    Битовая глубина : 8 бит
    Тип развёртки : Прогрессивная
    Бит/(Пиксели*Кадры) : 0.134
    Размер потока : 577 Мбайт (60%)
    Библиотека кодирования : x264 core 140 r2377 1ca7bb9
    Настройки программы : cabac=1 / ref=4 / deblock=1:-1:-1 / analyse=0x3:0x113 / me=umh / subme=9 / psy=1 / psy_rd=1.00:0.15 / mixed_ref=1 / me_range=18 / chroma_me=1 / trellis=2 / 8x8dct=1 / cqm=0 / deadzone=21,11 / fast_pskip=0 / chroma_qp_offset=-3 / threads=6 / lookahead_threads=1 / sliced_threads=0 / slices=4 / nr=0 / decimate=1 / interlaced=0 / bluray_compat=0 / constrained_intra=0 / bframes=3 / b_pyramid=1 / b_adapt=2 / b_bias=0 / direct=1 / weightb=1 / open_gop=0 / weightp=0 / keyint=23 / keyint_min=1 / scenecut=40 / intra_refresh=0 / rc_lookahead=23 / rc=crf / mbtree=1 / crf=22.0 / qcomp=0.60 / qpmin=10 / qpmax=51 / qpstep=4 / vbv_maxrate=40000 / vbv_bufsize=30000 / crf_max=0.0 / nal_hrd=vbr / filler=0 / ip_ratio=1.40 / aq=1:1.00
    Default : Да
    Forced : Нет
    Основные цвета : BT.709
    Характеристики трансфера : BT.709
    Коэффициенты матрицы : BT.709
    Аудио #1
    Идентификатор : 2
    Формат : AC-3
    Формат/Информация : Audio Coding 3
    Расширение режима : CM (complete main)
    Параметр Endianness формата : Big
    Идентификатор кодека : A_AC3
    Продолжительность : 1 ч. 27 м.
    Вид битрейта : Постоянный
    Битрейт : 192 Кбит/сек
    Каналы : 2 канала
    Расположение каналов : Front: L R
    Частота : 48,0 КГц
    Битовая глубина : 16 бит
    Метод сжатия : С потерями
    Размер потока : 120 Мбайт (13%)
    Язык : Russian
    Default : Нет
    Forced : Нет
    Аудио #2
    Идентификатор : 3
    Формат : AC-3
    Формат/Информация : Audio Coding 3
    Расширение режима : CM (complete main)
    Параметр Endianness формата : Big
    Идентификатор кодека : A_AC3
    Продолжительность : 1 ч. 27 м.
    Вид битрейта : Постоянный
    Битрейт : 384 Кбит/сек
    Каналы : 6 каналов
    Расположение каналов : Front: L C R, Side: L R, LFE
    Частота : 48,0 КГц
    Битовая глубина : 16 бит
    Метод сжатия : С потерями
    Размер потока : 240 Мбайт (25%)
    Язык : English
    Default : Нет
    Forced : Нет

    Скриншоты

    Скачать .torrent

    Скачать торрент-файл бесплатно и на максимальной скорости!

    Как скачивать? · Что такое торрент? · Рейтинг и ограничения

    !ВНИМАНИЕ!
    Сайт не распространяет и не хранит электронные версии произведений, а занимается лишь лишь предоставлением доступа к создаваемому пользователями каталогу ссылок на торрент-файлы, которые содержат только списки хеш-сумм, убедительная просьба с жалобами обращаться напрямую к пользователю. Файлы для обмена на трекере предоставлены пользователями сайта, и администрация не несёт ответственности за их содержание. Просьба не заливать файлы, защищенные авторскими правами, а также файлы нелегального содержания!


    _________________
    [Профиль] [ЛС]
    Показать сообщения:    
    Ответить на тему

    Текущее время: Сегодня, в 08:09

    Часовой пояс: GMT + 2



    Вы не можете начинать темы
    Вы не можете отвечать на сообщения
    Вы не можете редактировать свои сообщения
    Вы не можете удалять свои сообщения
    Вы не можете голосовать в опросах
    Вы не можете прикреплять файлы к сообщениям
    Вы не можете скачивать файлы