Register  ·  Log in
Forgot password?

  • Жизнь в роскоши 2 / Wkreceni 2 (Пётр Вересняк / Piotr Weresniak) [2015 г., Польша, комедия, DVDRip] VO (Павел Морозов)

    Reply to topic
    Author Message


    Post 31-Aug-2016 21:30



    Жизнь в роскоши 2 / Wkreceni 2
    Страна: Польша
    Жанр: комедия
    Год выпуска: 2015
    Продолжительность: 01:32:06
    Перевод: Любительский (одноголосый закадровый) Павел Морозов
    Субтитры: нет
    Оригинальная аудиодорожка: нет
    Режиссер: Пётр Вересняк / Piotr Weresniak
    В ролях: Павел Домагала, Малгожата Соха, Бартош Опанья,
    Марта Жмуда, Энтони Круликовски, Филип Бобек, Лешек Лихота,
    Анна Муха, Марцин Перхучь
    Скромный мусорщик Томек Зарувный оказывается удивительным образом похож на мега-звезду Мики Мазура. Из этого факта продюсеры певца решают извлечь для себя выгоду.
    Семпл/Все раздачи фильма
    Исходник -- Рип найден в сети
    Качество видео: DVDRip
    Формат видео: AVI
    Видео: 1844 Kbps, 688x400, 25 fps, XviD
    Аудио: 384 Kbps, 48 KHz, 6 ch, AC3


    Complete name : E:\Rich_life-2_2015.avi
    Format : AVI
    Format/Info : Audio Video Interleave
    File size : 1.44 GiB
    Duration : 1h 32mn
    Overall bit rate : 2 237 Kbps
    Writing application : VirtualDubMod | || (build 2550/release)
    Writing library : VirtualDubMod build 2550/release
    ID : 0
    Format : MPEG-4 Visual
    Format profile : Advanced Simple@L5
    Format settings, BVOP : Yes
    Format settings, QPel : No
    Format settings, GMC : No warppoints
    Format settings, Matrix : Default (MPEG)
    Codec ID : XVID
    Codec ID/Hint : XviD
    Duration : 1h 32mn
    Bit rate : 1 844 Kbps
    Width : 688 pixels
    Height : 400 pixels
    Display aspect ratio : 16:9
    Frame rate : 25.000 fps
    Resolution : 8 bits
    Colorimetry : 4:2:0
    Scan type : Progressive
    Bits/(Pixel*Frame) : 0.268
    Stream size : 1.19 GiB (82%)
    Writing library : XviD 73
    ID : 1
    Format : AC-3
    Format/Info : Audio Coding 3
    Format_Settings_ModeExtension : CM (complete main)
    Codec ID : 2000
    Duration : 1h 32mn
    Bit rate mode : Constant
    Bit rate : 384 Kbps
    Channel(s) : 6 channels
    Channel positions : Front: L C R, Side: L R, LFE
    Sampling rate : 48.0 KHz
    Stream size : 253 MiB (17%)
    Alignment : Split accross interleaves
    Interleave, duration : 40 ms (1.00 video frame)
    Interleave, preload duration : 500 ms


    Download .torrent

    Download free and at maximum speed!

    How to Download? · What is a torrent? · Ratings and Limitations

    The site does not extend and does not store electronic(digital) versions of products, and only gives access to a reference catalogue created by users on torrent-files which contain only lists of the hash-sums, the earnest entreaty, with complaints(abuse) to access directly to the user. Files for an exchange on tracker are given by users of a site, and the administration does not bear the responsibility for their maintenance. The request to not fill in the files protected by copyrights, and also files of the illegal maintenance!

    [Profile] [PM]
    Display posts from previous:    
    Reply to topic

    The time now is: Today 16:22

    All times are GMT + 3 Hours

    You cannot post new topics in this forum
    You cannot reply to topics in this forum
    You cannot edit your posts in this forum
    You cannot delete your posts in this forum
    You cannot vote in polls in this forum
    You cannot attach files in this forum
    You cannot download files in this forum