BitTorrentTracker PerecTracker.org
BitTorrentTracker PerecTracker.org
    
Регистрация  ·  Вход
 
 · 
Забыли пароль?

  • Жизнь в роскоши 2 / Wkreceni 2 (Пётр Вересняк / Piotr Weresniak) [2015 г., Польша, комедия, DVDRip] VO (Павел Морозов)

    Ответить на тему
     
    Автор Сообщение

    Light

    Создавать темы 31-Авг-2016 20:30

           

    [Цитировать]

    Жизнь в роскоши 2 / Wkreceni 2
    Страна: Польша
    Жанр: комедия
    Год выпуска: 2015
    Продолжительность: 01:32:06
    Перевод: Любительский (одноголосый закадровый) Павел Морозов
    Субтитры: нет
    Оригинальная аудиодорожка: нет
    Режиссер: Пётр Вересняк / Piotr Weresniak
    В ролях: Павел Домагала, Малгожата Соха, Бартош Опанья,
    Марта Жмуда, Энтони Круликовски, Филип Бобек, Лешек Лихота,
    Анна Муха, Марцин Перхучь
    Описание:
    Скромный мусорщик Томек Зарувный оказывается удивительным образом похож на мега-звезду Мики Мазура. Из этого факта продюсеры певца решают извлечь для себя выгоду.
    Семпл/Все раздачи фильма
    Исходник -- Рип найден в сети
    Качество видео: DVDRip
    Формат видео: AVI
    Видео: 1844 Kbps, 688x400, 25 fps, XviD
    Аудио: 384 Kbps, 48 KHz, 6 ch, AC3

    МедиаИнфо

    General
    Complete name : E:\Rich_life-2_2015.avi
    Format : AVI
    Format/Info : Audio Video Interleave
    File size : 1.44 GiB
    Duration : 1h 32mn
    Overall bit rate : 2 237 Kbps
    Writing application : VirtualDubMod 1.5.10.3 | www.virtualdub-fr.org || (build 2550/release)
    Writing library : VirtualDubMod build 2550/release
    Video
    ID : 0
    Format : MPEG-4 Visual
    Format profile : Advanced Simple@L5
    Format settings, BVOP : Yes
    Format settings, QPel : No
    Format settings, GMC : No warppoints
    Format settings, Matrix : Default (MPEG)
    Codec ID : XVID
    Codec ID/Hint : XviD
    Duration : 1h 32mn
    Bit rate : 1 844 Kbps
    Width : 688 pixels
    Height : 400 pixels
    Display aspect ratio : 16:9
    Frame rate : 25.000 fps
    Resolution : 8 bits
    Colorimetry : 4:2:0
    Scan type : Progressive
    Bits/(Pixel*Frame) : 0.268
    Stream size : 1.19 GiB (82%)
    Writing library : XviD 73
    Audio
    ID : 1
    Format : AC-3
    Format/Info : Audio Coding 3
    Format_Settings_ModeExtension : CM (complete main)
    Codec ID : 2000
    Duration : 1h 32mn
    Bit rate mode : Constant
    Bit rate : 384 Kbps
    Channel(s) : 6 channels
    Channel positions : Front: L C R, Side: L R, LFE
    Sampling rate : 48.0 KHz
    Stream size : 253 MiB (17%)
    Alignment : Split accross interleaves
    Interleave, duration : 40 ms (1.00 video frame)
    Interleave, preload duration : 500 ms

    Скриншоты

    Скачать .torrent

    Скачать торрент-файл бесплатно и на максимальной скорости!

    Как скачивать? · Что такое торрент? · Рейтинг и ограничения

    !ВНИМАНИЕ!
    Сайт не распространяет и не хранит электронные версии произведений, а занимается лишь лишь предоставлением доступа к создаваемому пользователями каталогу ссылок на торрент-файлы, которые содержат только списки хеш-сумм, убедительная просьба с жалобами обращаться напрямую к пользователю. Файлы для обмена на трекере предоставлены пользователями сайта, и администрация не несёт ответственности за их содержание. Просьба не заливать файлы, защищенные авторскими правами, а также файлы нелегального содержания!


    _________________
    [Профиль] [ЛС]
    Показать сообщения:    
    Ответить на тему

    Текущее время: Сегодня, в 16:34

    Часовой пояс: GMT + 2



    Вы не можете начинать темы
    Вы не можете отвечать на сообщения
    Вы не можете редактировать свои сообщения
    Вы не можете удалять свои сообщения
    Вы не можете голосовать в опросах
    Вы не можете прикреплять файлы к сообщениям
    Вы не можете скачивать файлы