BitTorrentTracker PerecTracker.org
BitTorrentTracker PerecTracker.org
    
Регистрация  ·  Вход
 
 · 
Забыли пароль?

  • Равные / Equals (Дрейк Доримус / Drake Doremus) [2015, США, фантастика, драма, мелодрама, BDRip-AVC] Dub

    Ответить на тему
     
    Автор Сообщение

    Light

    Создавать темы 31-Авг-2016 07:54

           

    [Цитировать]

    Равные / Equals«В любви все равны»-Страна: США
    Жанр: фантастика, драма, мелодрама
    Год выпуска: 2015
    Продолжительность: 01:42:12
    Перевод: Профессиональный (дублированный)
    Оригинальная аудиодорожка: нет
    Cубтитры: нет
    Навигация по главам: есть
    Режиссер: Дрейк Доримус / Drake Doremus
    В ролях: Николас Холт, Кристен Стюарт, Гай Пирс, Джеки Уивер, Тоби Хасс, Дэвид Селби, Кейт Лин Шейл, Ребекка Хэзлвуд, Тео Ю, Аврора Периньо
    Описание: Фильм «Равные» рассказывает историю Сайласа, который живет в будущем, в обществе, названном «Коллектив». Жители этого современного мира — новое поколение людей, называемое «Равными». Равные — это мирные, спокойные, вежливые и справедливые люди, и жизнь в «Коллективе» идеальна. В нем не существует ни бедности, ни жадности, ни насилия, ни эмоций… Но над обществом нависает новая угроза: заболевание «SOS» или «Синдром Общественной Сознательности», жертвы которого подвергаются всему, чего, как они думали, избежали: депрессия, уязвимость, страх, любовь. Если правительство обнаружит человека, зараженного «SOS», его сразу же заберут в Нору, после чего этого человека уже никто и никогда не увидит.
    Когда главный герой обнаруживает, что он тоже заражен, он становится изгоем, но замечает одного человека, который, как ему кажется, понимает, через что ему приходится проходить. В это время правительство заявляет о том, что лекарство от болезни «включенных эмоций» было найдено, и главные герои вынуждены искать способ выжить.- -Качество видео: BDRip-AVC (исходник - BDRemux|US Transfer|EQUALS_PROPER_REMUX_HDCLUB)
    Формат видео: MKV
    Видео: x264, 1152x624 (1,85:1), 23,976 fps, ~1460 kbps, 0.085 bit/pixel
    Аудио: 48 kHz, AC3 Dolby Digital, 3/2 (L,C,R,l,r) + LFE ch, ~448 kbps
    MediaInfo | x264 log
    Format : Matroska
    Format version : Version 4 / Version 2
    File size : 1.36 GiB
    Duration : 1h 42mn
    Overall bit rate : 1 902 Kbps
    Movie name : Равные / Equals (2015) :: AFM ::
    Encoded date : UTC 2016-08-29 21:54:35
    Writing application : mkvmerge v8.3.0 ('Over the Horizon') 32bit
    Writing library : libebml v1.3.1 + libmatroska v1.4.2
    Video
    ID : 1
    Format : AVC
    Format/Info : Advanced Video Codec
    Format profile : High@L4.1
    Format settings, CABAC : Yes
    Format settings, ReFrames : 11 frames
    Codec ID : V_MPEG4/ISO/AVC
    Duration : 1h 42mn
    Bit rate : 1 460 Kbps
    Width : 1 152 pixels
    Height : 624 pixels
    Display aspect ratio : 1.85:1
    Frame rate mode : Constant
    Frame rate : 23.976 fps
    Color space : YUV
    Chroma subsampling : 4:2:0
    Bit depth : 8 bits
    Scan type : Progressive
    Bits/(Pixel*Frame) : 0.085
    Stream size : 1.01 GiB (74%)
    Title : BDRip by AFM [RuTracker.org]
    Writing library : x264 core 148 r2705+54 9f484c1 t_mod_Custom [8-bit@all X86_64]
    Encoding settings : cabac=1 / ref=11 / deblock=1:-3:-2 / analyse=0x3:0x113 / me=umh / subme=10 / psy=1 / fade_compensate=0.00 / psy_rd=1.00:0.00 / mixed_ref=1 / me_range=32 / chroma_me=1 / trellis=2 / 8x8dct=1 / cqm=0 / deadzone=21,11 / fast_pskip=0 / chroma_qp_offset=-2 / threads=6 / lookahead_threads=1 / sliced_threads=0 / nr=0 / decimate=0 / interlaced=0 / bluray_compat=0 / constrained_intra=0 / fgo=0 / bframes=12 / b_pyramid=2 / b_adapt=2 / b_bias=0 / direct=3 / weightb=1 / open_gop=0 / weightp=2 / keyint=250 / keyint_min=23 / scenecut=40 / intra_refresh=0 / rc_lookahead=40 / rc=2pass / mbtree=0 / bitrate=1460 / ratetol=1.0 / qcomp=0.65 / qpmin=0:0:0 / qpmax=69:69:69 / qpstep=4 / cplxblur=20.0 / qblur=0.5 / vbv_maxrate=50000 / vbv_bufsize=62500 / nal_hrd=none / filler=0 / ip_ratio=1.35 / pb_ratio=1.30 / aq=3:0.85 / aq-sensitivity=10.00 / aq-factor=1.00:1.00:1.00 / aq2=0 / aq3=0
    Language : English
    Default : Yes
    Forced : No
    Audio
    ID : 2
    Format : AC-3
    Format/Info : Audio Coding 3
    Mode extension : CM (complete main)
    Format settings, Endianness : Big
    Codec ID : A_AC3
    Duration : 1h 42mn
    Bit rate mode : Constant
    Bit rate : 448 Kbps
    Channel(s) : 6 channels
    Channel positions : Front: L C R, Side: L R, LFE
    Sampling rate : 48.0 KHz
    Compression mode : Lossy
    Stream size : 327 MiB (24%)
    Title : Dub, AC3 5.1 ~448 kbps
    Language : Russian
    Default : Yes
    Forced : No
    Menu
    00:00:00.000 : en:Chapter 1
    00:07:24.860 : en:Chapter 2
    00:13:12.124 : en:Chapter 3
    00:20:12.752 : en:Chapter 4
    00:27:01.869 : en:Chapter 5
    00:36:32.105 : en:Chapter 6
    00:40:24.170 : en:Chapter 7
    00:44:55.024 : en:Chapter 8
    00:48:31.823 : en:Chapter 9
    00:56:15.203 : en:Chapter 10
    01:01:05.036 : en:Chapter 11
    01:09:11.145 : en:Chapter 12
    01:15:32.569 : en:Chapter 13
    01:21:38.560 : en:Chapter 14
    01:26:01.113 : en:Chapter 15
    01:29:53.887 : en:Chapter 16

    x264

    x264 [info]: frame I:826 Avg QP:12.65 size: 67419
    x264 [info]: frame P:26462 Avg QP:15.62 size: 19201
    x264 [info]: frame B:119736 Avg QP:17.83 size: 4588
    x264 [info]: consecutive B-frames: 1.6% 1.5% 6.4% 6.8% 12.0% 37.4% 9.8% 2.1% 4.0% 3.9% 4.4% 5.1% 4.9%
    x264 [info]: mb I I16..4: 12.8% 74.8% 12.4%
    x264 [info]: mb P I16..4: 2.1% 5.0% 0.8% P16..4: 42.3% 25.4% 13.7% 0.0% 0.0% skip:10.7%
    x264 [info]: mb B I16..4: 0.0% 0.1% 0.0% B16..8: 43.0% 8.2% 1.4% direct: 1.7% skip:45.6% L0:47.6% L1:49.3% BI: 3.1%
    x264 [info]: 8x8 transform intra:66.7% inter:61.2%
    x264 [info]: direct mvs spatial:99.2% temporal:0.8%
    x264 [info]: coded y,uvDC,uvAC intra: 71.0% 71.5% 51.1% inter: 9.4% 11.1% 4.7%
    x264 [info]: i16 v,h,dc,p: 33% 10% 8% 50%
    x264 [info]: i8 v,h,dc,ddl,ddr,vr,hd,vl,hu: 8% 6% 7% 12% 15% 14% 13% 12% 12%
    x264 [info]: i4 v,h,dc,ddl,ddr,vr,hd,vl,hu: 7% 5% 4% 15% 17% 14% 13% 11% 13%
    x264 [info]: i8c dc,h,v,p: 42% 25% 19% 14%
    x264 [info]: Weighted P-Frames: Y:3.0% UV:1.5%
    x264 [info]: ref P L0: 44.8% 3.9% 18.6% 7.4% 7.1% 5.1% 4.5% 2.3% 2.3% 1.8% 2.0% 0.1% 0.0%
    x264 [info]: ref B L0: 63.2% 14.4% 8.0% 4.1% 3.1% 2.8% 2.1% 1.2% 0.8% 0.3%
    x264 [info]: ref B L1: 91.6% 8.4%
    x264 [info]: kb/s:1452.18

    Скриншоты

    с названием

    Скачать .torrent

    Скачать торрент-файл бесплатно и на максимальной скорости!

    Как скачивать? · Что такое торрент? · Рейтинг и ограничения

    !ВНИМАНИЕ!
    Сайт не распространяет и не хранит электронные версии произведений, а занимается лишь лишь предоставлением доступа к создаваемому пользователями каталогу ссылок на торрент-файлы, которые содержат только списки хеш-сумм, убедительная просьба с жалобами обращаться напрямую к пользователю. Файлы для обмена на трекере предоставлены пользователями сайта, и администрация не несёт ответственности за их содержание. Просьба не заливать файлы, защищенные авторскими правами, а также файлы нелегального содержания!


    _________________
    [Профиль] [ЛС]
    Показать сообщения:    
    Ответить на тему

    Текущее время: Сегодня, в 03:19

    Часовой пояс: GMT + 2



    Вы не можете начинать темы
    Вы не можете отвечать на сообщения
    Вы не можете редактировать свои сообщения
    Вы не можете удалять свои сообщения
    Вы не можете голосовать в опросах
    Вы не можете прикреплять файлы к сообщениям
    Вы не можете скачивать файлы