BitTorrentTracker PerecTracker.org
BitTorrentTracker PerecTracker.org
    
Регистрация  ·  Вход
 
 · 
Забыли пароль?

  • Безумный Макс: Дорога ярости / Mad Max: Fury Road (Джордж Миллер / George Miller) [2015, Австралия, США, Футуристическая драма, фантастика, приключения, BDRip-AVC] 4x AVO (Гаврилов, Володарский, Карповский, Сербин) + Sub Rus Eng + Original Eng

    Ответить на тему
     
    Автор Сообщение

    Light

    Создавать темы 31-Авг-2016 07:54

           

    [Цитировать]

    Безумный Макс: Дорога ярости / Mad Max: Fury Road
    Страна: Австралия, США
    Жанр: Футуристическая драма, фантастика, приключения
    Год выпуска: 2015
    Продолжительность: 02:00:23
    Перевод: Авторский (одноголосый закадровый) А. Гаврилов
    Перевод 2: Авторский (одноголосый закадровый) Л. Володарский
    Перевод 3: Авторский (одноголосый закадровый) А. Карповский
    Перевод 4: Авторский (одноголосый закадровый) Ю. Сербин
    Cубтитры: русские, английские
    Оригинальная аудиодорожка: английский
    Режиссер: Джордж Миллер / George Miller
    В ролях: Том Харди, Шарлиз Терон, Николас Холт, Хью Кияс-Бёрн, Райли Кио, Роузи Хантингтон-Уайтли, Зои Кравиц, Эбби Ли, Кортни Итон, Нэйтан Джонс, Джош Хелман, Джон Ховард
    Описание: Преследуемый призраками беспокойного прошлого, Макс уверен, что лучший способ выжить — скитаться в одиночестве. Несмотря на это, он присоединяется к бунтарям, бегущим через всю пустыню на боевой фуре, под предводительством военачальника Фуриосы.
    Они пытаются сбежать из Цитадели, страдающей от тирании Несмертного Джо, у которого они забрали кое-что очень ценное. Разъярённый военачальник бросает все свои силы на погоню за мятежниками, ступая на дорогу войны — дорогу ярости.
    Сэмпл: https://www.sendspace.com/file/np7zam
    Качество видео: BDRip-AVC [Безумный Макс: Дорога ярости / Mad Max: Fury Road (2015) Blu-Ray Remux (1080p) Kinozal]
    Формат видео: MKV
    Видео: BDRip (AVC) / MPEG-4 AVC/H.264 / 2400 kbps / 1024x426 / 23.976
    Аудио: AVO Гаврилов (Rus) / AC3 / 6 ch / 448 kbps / 48 kHz
    Аудио 2: Original (Eng) / AC3 / 6 ch / 448 kbps / 48 kHz
    Аудио 3: AVO Володарский (Rus) / AC3 / 6 ch / 448 kbps / 48 kHz - отдельно
    Аудио 4: AVO Карповский (Rus) / AC3 / 6 ch / 448 kbps / 48 kHz - отдельно
    Аудио 5: AVO Сербин (Rus) / AC3 / 6 ch / 448 kbps / 48 kHz - отдельно
    Формат субтитров: softsub (SRT)
    Доп. информация о субтитрах: русские (4x full), английские (full)
    #Сохранены оригинальные чаптеры как на Blu-ray

    MediaInfo

    General
    Unique ID : 209399619891131031416076138841395711091 (0x9D88E65B343CECC2B9F9A66905E04C73)
    Complete name : J:\Torrents\Безумный Макс - Дорога ярости (2015) BDRip-AVC\Безумный Макс - Дорога ярости (2015) BDRip-AVC.mkv
    Format : Matroska
    Format version : Version 2
    File size : 2.77 GiB
    Duration : 2h 0mn
    Overall bit rate : 3 298 Kbps
    Movie name : Безумный Макс: Дорога ярости / Mad Max: Fury Road (2015)
    Encoded date : UTC 2016-07-24 20:26:13
    Writing application : mkvmerge v5.5.0 ('Healer') built on Apr 24 2012 23:47:03
    Writing library : libebml v1.2.3 + libmatroska v1.3.0
    Attachements : Cover.png
    Video
    ID : 1
    Format : AVC
    Format/Info : Advanced Video Codec
    Format profile : High@L4.1
    Format settings, CABAC : Yes
    Format settings, ReFrames : 10 frames
    Codec ID : V_MPEG4/ISO/AVC
    Duration : 2h 0mn
    Bit rate : 2 400 Kbps
    Width : 1 024 pixels
    Height : 426 pixels
    Display aspect ratio : 2.40:1
    Frame rate mode : Constant
    Frame rate : 23.976 (24000/1001) fps
    Color space : YUV
    Chroma subsampling : 4:2:0
    Bit depth : 8 bits
    Scan type : Progressive
    Bits/(Pixel*Frame) : 0.229
    Stream size : 1.97 GiB (71%)
    Title : BDRip (AVC) / MPEG-4 AVC/H.264 / 2400 kbps / 1024x426
    Writing library : x264 core 146 r2538 121396c
    Encoding settings : cabac=1 / ref=10 / deblock=1:-3:-3 / analyse=0x3:0x133 / me=umh / subme=10 / psy=1 / psy_rd=1.00:0.10 / mixed_ref=1 / me_range=48 / chroma_me=1 / trellis=2 / 8x8dct=1 / cqm=0 / deadzone=21,11 / fast_pskip=0 / chroma_qp_offset=-3 / threads=6 / lookahead_threads=1 / sliced_threads=0 / nr=0 / decimate=1 / interlaced=0 / bluray_compat=0 / constrained_intra=0 / bframes=5 / b_pyramid=2 / b_adapt=2 / b_bias=0 / direct=3 / weightb=1 / open_gop=0 / weightp=2 / keyint=240 / keyint_min=22 / scenecut=40 / intra_refresh=0 / rc_lookahead=40 / rc=2pass / mbtree=1 / bitrate=2400 / ratetol=1.0 / qcomp=0.60 / qpmin=10 / qpmax=51 / qpstep=4 / cplxblur=20.0 / qblur=0.5 / ip_ratio=1.40 / aq=1:1.00
    Language : English
    Default : Yes
    Forced : Yes
    Audio #1
    ID : 2
    Format : AC-3
    Format/Info : Audio Coding 3
    Mode extension : CM (complete main)
    Format settings, Endianness : Big
    Codec ID : A_AC3
    Duration : 2h 0mn
    Bit rate mode : Constant
    Bit rate : 448 Kbps
    Channel(s) : 6 channels
    Channel positions : Front: L C R, Side: L R, LFE
    Sampling rate : 48.0 KHz
    Frame rate : 31.250 fps (1536 spf)
    Compression mode : Lossy
    Stream size : 386 MiB (14%)
    Title : AVO Гаврилов (Rus) / AC3 / 6 ch / 448 kbps / 48 kHz
    Language : Russian
    Default : Yes
    Forced : Yes
    Audio #2
    ID : 3
    Format : AC-3
    Format/Info : Audio Coding 3
    Mode extension : CM (complete main)
    Format settings, Endianness : Big
    Codec ID : A_AC3
    Duration : 2h 0mn
    Bit rate mode : Constant
    Bit rate : 448 Kbps
    Channel(s) : 6 channels
    Channel positions : Front: L C R, Side: L R, LFE
    Sampling rate : 48.0 KHz
    Frame rate : 31.250 fps (1536 spf)
    Compression mode : Lossy
    Stream size : 386 MiB (14%)
    Title : Original (Eng) / AC3 / 6 ch / 448 kbps / 48 kHz
    Language : English
    Default : No
    Forced : No
    Text #1
    ID : 4
    Format : UTF-8
    Codec ID : S_TEXT/UTF8
    Codec ID/Info : UTF-8 Plain Text
    Title : Full (Rus) / S_TEXT/UTF8
    Language : Russian
    Default : No
    Forced : No
    Text #2
    ID : 5
    Format : UTF-8
    Codec ID : S_TEXT/UTF8
    Codec ID/Info : UTF-8 Plain Text
    Title : Full [Notabenoid 1] (Rus) / S_TEXT/UTF8
    Language : Russian
    Default : No
    Forced : No
    Text #3
    ID : 6
    Format : UTF-8
    Codec ID : S_TEXT/UTF8
    Codec ID/Info : UTF-8 Plain Text
    Title : Full [Notabenoid 2] (Rus) / S_TEXT/UTF8
    Language : Russian
    Default : No
    Forced : No
    Text #4
    ID : 7
    Format : UTF-8
    Codec ID : S_TEXT/UTF8
    Codec ID/Info : UTF-8 Plain Text
    Title : Full [Матвеев] (Rus) / S_TEXT/UTF8
    Language : Russian
    Default : No
    Forced : No
    Text #5
    ID : 8
    Format : UTF-8
    Codec ID : S_TEXT/UTF8
    Codec ID/Info : UTF-8 Plain Text
    Title : Full (Eng) / S_TEXT/UTF8
    Language : English
    Default : No
    Forced : No
    Text #6
    ID : 9
    Format : UTF-8
    Codec ID : S_TEXT/UTF8
    Codec ID/Info : UTF-8 Plain Text
    Title : Full [SDH] (Eng) / S_TEXT/UTF8
    Language : English
    Default : No
    Forced : No
    Menu
    00:00:00.000 : en:Chapter 01
    00:10:42.475 : en:Chapter 02
    00:19:06.432 : en:Chapter 03
    00:19:06.433 : en:Chapter 04
    00:19:06.435 : en:Chapter 05
    00:30:12.307 : en:Chapter 06 / en:Chapter 07
    00:30:12.309 : en:Chapter 08
    00:42:55.613 : en:Chapter 09
    00:49:33.344 : en:Chapter 10 / en:Chapter 11
    00:59:55.171 : en:Chapter 12
    00:59:55.173 : en:Chapter 13
    00:59:55.175 : en:Chapter 14
    01:13:02.542 : en:Chapter 15 / en:Chapter 16
    01:13:02.545 : en:Chapter 17
    01:22:08.921 : en:Chapter 18 / en:Chapter 19
    01:30:02.729 : en:Chapter 20 / en:Chapter 21
    01:40:39.867 : en:Chapter 22
    01:49:12.546 : en:Chapter 23
    01:53:06.279 : en:Chapter 24
    02:00:21.087 : en:Chapter 25
    02:00:23.131 : en:Chapter 26 / en:Chapter 27

    Скриншот c названием фильма

    Скриншоты

    Скачать .torrent

    Скачать торрент-файл бесплатно и на максимальной скорости!

    Как скачивать? · Что такое торрент? · Рейтинг и ограничения

    !ВНИМАНИЕ!
    Сайт не распространяет и не хранит электронные версии произведений, а занимается лишь лишь предоставлением доступа к создаваемому пользователями каталогу ссылок на торрент-файлы, которые содержат только списки хеш-сумм, убедительная просьба с жалобами обращаться напрямую к пользователю. Файлы для обмена на трекере предоставлены пользователями сайта, и администрация не несёт ответственности за их содержание. Просьба не заливать файлы, защищенные авторскими правами, а также файлы нелегального содержания!


    _________________
    [Профиль] [ЛС]
    Показать сообщения:    
    Ответить на тему

    Текущее время: Сегодня, в 02:25

    Часовой пояс: GMT + 2



    Вы не можете начинать темы
    Вы не можете отвечать на сообщения
    Вы не можете редактировать свои сообщения
    Вы не можете удалять свои сообщения
    Вы не можете голосовать в опросах
    Вы не можете прикреплять файлы к сообщениям
    Вы не можете скачивать файлы