BitTorrentTracker PerecTracker.org
BitTorrentTracker PerecTracker.org
    
Регистрация  ·  Вход
 
 · 
Забыли пароль?

  • Маленькая Одесса / Little Odessa (Джеймс Грэй / James Gray) [1994, США, драма, криминал, WEB-DL 1080p] MVO (СОНОТЭК) + 2x AVO (Сербин, Визгунов) + Sub Eng + 2x Original (Eng)

    Ответить на тему
     
    Автор Сообщение

    Light

    Создавать темы 31-Авг-2016 03:50

           

    [Цитировать]

    Маленькая Одесса / Little Odessa«Потерянные навсегда»
    Страна: США
    Жанр: драма, криминал
    Год выпуска: 1994
    Продолжительность: 01:38:11
    -
    Перевод 1: Профессиональный (многоголосый закадровый) СОНОТЭК
    Перевод 2: Авторский (одноголосый закадровый) Юрий Сербин
    Перевод 3: Авторский (одноголосый закадровый) Сергей Визгунов
    Cубтитры: английские
    Оригинальная аудиодорожка: английский
    -
    Режиссер: Джеймс Грэй / James Gray
    В ролях: Тим Рот, Эдвард Ферлонг, Мойра Келли, Ванесса Редгрейв, Пол Гилфойл, Наталья Андрейченко, Максимилиан Шелл, Давид Вадим, Мина Берн, Борис МакГайвер
    -
    Описание: Профессиональный убийца Йосиф Шапиро получает задание "убрать" человека в своем родном районе, где живут его отец, умирающая мать и младший брат. Отец давно отказался от сына-убийцы, так как знает о роде его занятий, но брат и мать любят его. Да и отец не может окончательно вычеркнуть его из сердца.

    Тип релиза: WEB-DL 1080p
    Контейнер: MKV
    Видео: H.264 / NTSC 16:9 / 1920x816 (2,35:1) / 5814 kbps / 23,976 fps / 0.155 bit/pixel / High@L4
    Аудио 1: Russian / Dolby Digital Audio / 5.1 Ch / 48 kHz / 448 kbps / 16 bit / MVO / СОНОТЭК
    Аудио 2: Russian / Dolby Digital Audio / 2.0 Ch / 48 kHz / 192 kbps / 16 bit / AVO / Юрий Сербин
    Аудио 3: Russian / Dolby Digital Audio / 2.0 Ch / 48 kHz / 192 kbps / 16 bit / AVO / Сергей Визгунов
    Аудио 4: English / Dolby Digital Audio / 5.1 Ch / 48 kHz / 448 kbps / 16 bit / Original / DVD
    Аудио 5: English / Dolby Digital Plus Audio / 2.0 Ch / 48 kHz / 224 kbps / 16 bit / Original
    Формат субтитров: softsub (SRT)
    Навигация по главам: есть

    MediaInfo

    Общее
    Уникальный идентификатор                 : 198992516465831175604516494318118586047 (0x95B4908ABE3AAD78B5A94E42AE4746BF)
    Полное имя                               : N:\WEBRip 1080p\Little Odessa.1994.WEBRip.1080p.mkv
    Формат                                   : Matroska
    Версия формата                           : Version 4 / Version 2
    Размер файла                             : 5,02 Гбайт
    Продолжительность                        : 1 ч. 38 м.
    Режим общего битрейта                    : Переменный
    Общий поток                              : 7319 Кбит/сек
    Название фильма                          : Release for RuTracker © flaSI-I
    Дата кодирования                         : UTC 2016-08-28 21:19:11
    Программа кодирования                    : mkvmerge v9.4.0 ('Knurl') 64bit
    Библиотека кодирования                   : libebml v1.3.4 + libmatroska v1.4.5
    Видео
    Идентификатор                            : 1
    Формат                                   : AVC
    Формат/Информация                        : Advanced Video Codec
    Профиль формата                          : High@L4
    Параметр CABAC формата                   : Да
    Параметр ReFrames формата                : 4 кадра
    Идентификатор кодека                     : V_MPEG4/ISO/AVC
    Продолжительность                        : 1 ч. 38 м.
    Вид битрейта                             : Переменный
    Битрейт                                  : 5814 Кбит/сек
    Максимальный битрейт                     : 15,0 Мбит/сек
    Ширина                                   : 1920 пикселей
    Высота                                   : 816 пикселей
    Соотношение сторон                       : 2,35:1
    Режим частоты кадров                     : Постоянный
    Частота кадров                           : 23,976 (24000/1001) кадра/сек
    Цветовое пространство                    : YUV
    Субдискретизация насыщенности            : 4:2:0
    Битовая глубина                          : 8 бит
    Тип развёртки                            : Прогрессивная
    Бит/(Пиксели*Кадры)                      : 0.155
    Размер потока                            : 3,99 Гбайт (79%)
    Библиотека кодирования                   : x264 core 148 r2623 d5b2374
    Настройки программы                      : cabac=1 / ref=4 / deblock=1:-1:-1 / analyse=0x3:0x133 / me=umh / subme=9 / psy=1 / psy_rd=1.00:0.15 / mixed_ref=1 / me_range=24 / chroma_me=1 / trellis=2 / 8x8dct=1 / cqm=0 / deadzone=21,11 / fast_pskip=1 / chroma_qp_offset=-3 / threads=25 / lookahead_threads=4 / sliced_threads=0 / nr=150 / decimate=1 / interlaced=0 / bluray_compat=0 / constrained_intra=0 / bframes=8 / b_pyramid=2 / b_adapt=2 / b_bias=0 / direct=3 / weightb=1 / open_gop=0 / weightp=2 / keyint=120 / keyint_min=61 / scenecut=0 / intra_refresh=0 / rc_lookahead=120 / rc=crf / mbtree=1 / crf=18.0 / qcomp=0.60 / qpmin=0 / qpmax=69 / qpstep=4 / vbv_maxrate=15000 / vbv_bufsize=31250 / crf_max=0.0 / nal_hrd=vbr / filler=0 / ip_ratio=1.40 / aq=3:1.00
    Язык                                     : English
    Default                                  : Да
    Forced                                   : Нет
    Цветовой диапазон                        : Limited
    Основные цвета                           : BT.709
    Характеристики трансфера                 : BT.709
    Коэффициенты матрицы                     : BT.709
    Аудио #1
    Идентификатор                            : 2
    Формат                                   : AC-3
    Формат/Информация                        : Audio Coding 3
    Расширение режима                        : CM (complete main)
    Параметр Endianness формата              : Big
    Идентификатор кодека                     : A_AC3
    Продолжительность                        : 1 ч. 38 м.
    Вид битрейта                             : Постоянный
    Битрейт                                  : 448 Кбит/сек
    Каналы                                   : 6 каналов
    Расположение каналов                     : Front: L C R, Side: L R, LFE
    Частота                                  : 48,0 КГц
    Частота кадров                           : 31,250 кадров/сек (1536 spf)
    Метод сжатия                             : С потерями
    Размер потока                            : 314 Мбайт (6%)
    Заголовок                                : MVO / СОНОТЭК
    Язык                                     : Russian
    Default                                  : Да
    Forced                                   : Нет
    Аудио #2
    Идентификатор                            : 3
    Формат                                   : AC-3
    Формат/Информация                        : Audio Coding 3
    Расширение режима                        : CM (complete main)
    Параметр Endianness формата              : Big
    Идентификатор кодека                     : A_AC3
    Продолжительность                        : 1 ч. 38 м.
    Вид битрейта                             : Постоянный
    Битрейт                                  : 192 Кбит/сек
    Каналы                                   : 2 канала
    Расположение каналов                     : Front: L R
    Частота                                  : 48,0 КГц
    Частота кадров                           : 31,250 кадров/сек (1536 spf)
    Метод сжатия                             : С потерями
    Размер потока                            : 135 Мбайт (3%)
    Заголовок                                : AVO / Юрий Сербин
    Язык                                     : Russian
    Default                                  : Нет
    Forced                                   : Нет
    Аудио #3
    Идентификатор                            : 4
    Формат                                   : AC-3
    Формат/Информация                        : Audio Coding 3
    Расширение режима                        : CM (complete main)
    Параметр Endianness формата              : Big
    Идентификатор кодека                     : A_AC3
    Продолжительность                        : 1 ч. 38 м.
    Вид битрейта                             : Постоянный
    Битрейт                                  : 192 Кбит/сек
    Каналы                                   : 2 канала
    Расположение каналов                     : Front: L R
    Частота                                  : 48,0 КГц
    Частота кадров                           : 31,250 кадров/сек (1536 spf)
    Метод сжатия                             : С потерями
    Размер потока                            : 135 Мбайт (3%)
    Заголовок                                : AVO / Сергей Визгунов
    Язык                                     : Russian
    Default                                  : Нет
    Forced                                   : Нет
    Аудио #4
    Идентификатор                            : 5
    Формат                                   : AC-3
    Формат/Информация                        : Audio Coding 3
    Расширение режима                        : CM (complete main)
    Параметр Endianness формата              : Big
    Идентификатор кодека                     : A_AC3
    Продолжительность                        : 1 ч. 38 м.
    Вид битрейта                             : Постоянный
    Битрейт                                  : 448 Кбит/сек
    Каналы                                   : 6 каналов
    Расположение каналов                     : Front: L C R, Side: L R, LFE
    Частота                                  : 48,0 КГц
    Частота кадров                           : 31,250 кадров/сек (1536 spf)
    Метод сжатия                             : С потерями
    Размер потока                            : 314 Мбайт (6%)
    Заголовок                                : Original / DVD
    Язык                                     : English
    Default                                  : Нет
    Forced                                   : Нет
    Аудио #5
    Идентификатор                            : 6
    Формат                                   : E-AC-3
    Формат/Информация                        : Audio Coding 3
    Параметр Endianness формата              : Big
    Идентификатор кодека                     : A_EAC3
    Продолжительность                        : 1 ч. 38 м.
    Вид битрейта                             : Постоянный
    Битрейт                                  : 224 Кбит/сек
    Каналы                                   : 2 канала
    Расположение каналов                     : Front: L R
    Частота                                  : 48,0 КГц
    Частота кадров                           : 187,500 кадров/сек (256 spf)
    Метод сжатия                             : С потерями
    Размер потока                            : 157 Мбайт (3%)
    Заголовок                                : Original
    Язык                                     : English
    Default                                  : Нет
    Forced                                   : Нет
    Текст
    Идентификатор                            : 7
    Формат                                   : UTF-8
    Идентификатор кодека                     : S_TEXT/UTF8
    Идентификатор кодека/Информация          : UTF-8 Plain Text
    Продолжительность                        : 1 ч. 32 м.
    Битрейт                                  : 27 бит/сек
    Count of elements                        : 641
    Размер потока                            : 18,3 Кбайт (0%)
    Заголовок                                : Original
    Язык                                     : English
    Default                                  : Нет
    Forced                                   : Нет
    Меню
    00:00:00.000                             : en:Chapter 1
    00:06:45.405                             : en:Chapter 2
    00:16:05.339                             : en:Chapter 3
    00:24:58.997                             : en:Chapter 4
    00:29:57.420                             : en:Chapter 5
    00:38:16.669                             : en:Chapter 6
    00:47:42.234                             : en:Chapter 7
    00:58:08.485                             : en:Chapter 8
    01:07:54.695                             : en:Chapter 9
    01:14:40.100                             : en:Chapter 10
    01:23:26.876                             : en:Chapter 11
    01:30:09.153                             : en:Chapter 12

    Скриншоты

    Скачать .torrent

    Скачать торрент-файл бесплатно и на максимальной скорости!

    Как скачивать? · Что такое торрент? · Рейтинг и ограничения

    !ВНИМАНИЕ!
    Сайт не распространяет и не хранит электронные версии произведений, а занимается лишь лишь предоставлением доступа к создаваемому пользователями каталогу ссылок на торрент-файлы, которые содержат только списки хеш-сумм, убедительная просьба с жалобами обращаться напрямую к пользователю. Файлы для обмена на трекере предоставлены пользователями сайта, и администрация не несёт ответственности за их содержание. Просьба не заливать файлы, защищенные авторскими правами, а также файлы нелегального содержания!


    _________________
    [Профиль] [ЛС]
    Показать сообщения:    
    Ответить на тему

    Текущее время: Сегодня, в 20:44

    Часовой пояс: GMT + 2



    Вы не можете начинать темы
    Вы не можете отвечать на сообщения
    Вы не можете редактировать свои сообщения
    Вы не можете удалять свои сообщения
    Вы не можете голосовать в опросах
    Вы не можете прикреплять файлы к сообщениям
    Вы не можете скачивать файлы