BitTorrentTracker PerecTracker.org
BitTorrentTracker PerecTracker.org
    
Регистрация  ·  Вход
 
 · 
Забыли пароль?

  • Выходные в кругу семьи / Familieweekend (Питер ван Рийн / Pieter van Rijn) [2016, Нидерланды, комедия, детектив, BDRip 720p] VO (Lord32x Studio) + Sub Rus, Eng + Original Dut

    Ответить на тему
     
    Автор Сообщение

    Light

    Создавать темы 30-Авг-2016 14:22

           

    [Цитировать]

    -Выходные в кругу семьи / Familieweekend-Страна: Нидерланды
    Жанр: Комедия, детектив
    Год выпуска: 2016
    Продолжительность: 01:23:44-Перевод: Михаил Васильев
    Озвучивание: Любительское (одноголосое закадровое) [Lord32x Studio]
    Cубтитры: Русские, английские
    Оригинальная аудиодорожка: Нидерландская
    Режиссер: Питер ван Рийн / Pieter van Rijn
    В ролях: Дерек де Линт, Йелка ван Хаутен, Дженнифер Хоффман, Саннэ Лангераан, Беппи Мелиссен, Тим Харс, Синтия Абма, Сес Гел, Лоес Лука, Дирк Зеленберг-Описание: Престарелый миллионер собирает своих детей, чтобы сообщить им сногсшибательную новость: он собирается жениться. Естественно, его избранница на 30 лет его младше. Дети скандализированы поведением отца. Никто из них не верит в искренность чувств этой особы. Конечно, она явно просто хочет прикарманить их миллионы.-Сэмпл: http://multi-up.com/1115470-КиноПоиск
    IMDb-Тип релиза: BDRip 720p
    Контейнер: MKV
    Видео: AVC, 1280x536, 24.000 fps, ~4092 kbps
    Аудио: Русский, AC3, 6 ch, 48 kHz, 448 Кбит/с - Lord32x
    Аудио 2: Нидерландский, DTS, 6 ch, 48 kHz, 1509 Кбит/с - Оригинал
    Формат субтитров: softsub (SRT)

    MediaInfo

    General
    Unique ID : 170779634002590798320504942421768001454 (0x807AF60AC2F4EE17A2FC2425A341D7AE)
    Complete name : D:\Озвучивание\Релизы\Familieweekend.2016.Lord32x\Familieweekend.2016.BDRip.720p.Lord32x.mkv
    Format : Matroska
    Format version : Version 2
    File size : 3.54 GiB
    Duration : 1 h 23 min
    Overall bit rate : 6 053 kb/s
    Encoded date : UTC 2016-08-28 11:13:10
    Writing application : mkvmerge v7.8.0 ('River Man') 32bit built on Apr 3 2015 12:11:22
    Writing library : libebml v1.3.1 + libmatroska v1.4.2
    Cover : Yes
    Attachments : Cover.png
    Video
    ID : 1
    Format : AVC
    Format/Info : Advanced Video Codec
    Format profile : High@L4.1
    Format settings, CABAC : Yes
    Format settings, ReFrames : 5 frames
    Codec ID : V_MPEG4/ISO/AVC
    Duration : 1 h 23 min
    Bit rate : 4 092 kb/s
    Width : 1 280 pixels
    Height : 536 pixels
    Display aspect ratio : 2.40:1
    Frame rate mode : Constant
    Frame rate : 24.000 FPS
    Color space : YUV
    Chroma subsampling : 4:2:0
    Bit depth : 8 bits
    Scan type : Progressive
    Bits/(Pixel*Frame) : 0.249
    Stream size : 2.33 GiB (66%)
    Writing library : x264 core 148 r2694 3b70645
    Encoding settings : cabac=1 / ref=5 / deblock=1:0:0 / analyse=0x3:0x113 / me=umh / subme=8 / psy=1 / psy_rd=1.00:0.00 / mixed_ref=1 / me_range=16 / chroma_me=1 / trellis=1 / 8x8dct=1 / cqm=0 / deadzone=21,11 / fast_pskip=0 / chroma_qp_offset=-2 / threads=12 / lookahead_threads=2 / sliced_threads=0 / nr=0 / decimate=1 / interlaced=0 / bluray_compat=0 / constrained_intra=0 / bframes=3 / b_pyramid=2 / b_adapt=2 / b_bias=0 / direct=3 / weightb=1 / open_gop=0 / weightp=2 / keyint=250 / keyint_min=24 / scenecut=40 / intra_refresh=0 / rc_lookahead=50 / rc=2pass / mbtree=1 / bitrate=4092 / ratetol=1.0 / qcomp=0.60 / qpmin=0 / qpmax=69 / qpstep=4 / cplxblur=20.0 / qblur=0.5 / ip_ratio=1.40 / aq=1:1.00
    Default : Yes
    Forced : No
    Statistics Tags Issue : mkvmerge v9.1.0 ('Little Earthquakes') 64bit 2016-07-09 19:07:03 / mkvmerge v7.8.0 ('River Man') 32bit built on Apr 3 2015 12:11:22 2016-08-28 11:13:10
    FromStats_BitRate : 4091473
    FromStats_Duration : 01:23:43.792000000
    FromStats_FrameCount : 120571
    FromStats_StreamSize : 2569339168
    Audio #1
    ID : 2
    Format : AC-3
    Format/Info : Audio Coding 3
    Mode extension : CM (complete main)
    Format settings, Endianness : Big
    Codec ID : A_AC3
    Duration : 1 h 23 min
    Bit rate mode : Constant
    Bit rate : 448 kb/s
    Channel(s) : 6 channels
    Channel positions : Front: L C R, Side: L R, LFE
    Sampling rate : 48.0 kHz
    Frame rate : 31.250 FPS (1536 spf)
    Compression mode : Lossy
    Stream size : 268 MiB (7%)
    Title : Lord32x
    Language : Russian
    Default : Yes
    Forced : Yes
    Audio #2
    ID : 3
    Format : DTS
    Format/Info : Digital Theater Systems
    Mode : 16
    Format settings, Endianness : Big
    Codec ID : A_DTS
    Duration : 1 h 23 min
    Bit rate mode : Constant
    Bit rate : 1 509 kb/s
    Channel(s) : 6 channels
    Channel positions : Front: L C R, Side: L R, LFE
    Sampling rate : 48.0 kHz
    Frame rate : 93.750 FPS (512 spf)
    Bit depth : 24 bits
    Compression mode : Lossy
    Stream size : 904 MiB (25%)
    Title : Original
    Language : German
    Default : No
    Forced : No
    Statistics Tags Issue : mkvmerge v9.1.0 ('Little Earthquakes') 64bit 2016-07-09 19:07:03 / mkvmerge v7.8.0 ('River Man') 32bit built on Apr 3 2015 12:11:22 2016-08-28 11:13:10
    FromStats_BitRate : 1508999
    FromStats_Duration : 01:23:42.870000000
    FromStats_FrameCount : 470894
    FromStats_StreamSize : 947438728
    Text #1
    ID : 4
    Format : UTF-8
    Codec ID : S_TEXT/UTF8
    Codec ID/Info : UTF-8 Plain Text
    Language : Russian
    Default : No
    Forced : No
    Text #2
    ID : 5
    Format : UTF-8
    Codec ID : S_TEXT/UTF8
    Codec ID/Info : UTF-8 Plain Text
    Language : English
    Default : No
    Forced : No
    Statistics Tags Issue : mkvmerge v9.1.0 ('Little Earthquakes') 64bit 2016-07-09 19:07:03 / mkvmerge v7.8.0 ('River Man') 32bit built on Apr 3 2015 12:11:22 2016-08-28 11:13:10
    FromStats_BitRate : 56
    FromStats_Duration : 01:20:06.625000000
    FromStats_FrameCount : 826
    FromStats_StreamSize : 33892
    Menu
    00:00:00.000 : en:00:00:00.000
    00:07:57.000 : en:00:07:57.000
    00:14:51.000 : en:00:14:51.000
    00:22:14.000 : en:00:22:14.000
    00:30:42.000 : en:00:30:42.000
    00:38:19.000 : en:00:38:19.000
    00:45:21.000 : en:00:45:21.000
    00:52:18.000 : en:00:52:18.000
    00:59:52.000 : en:00:59:52.000
    01:07:15.000 : en:01:07:15.000
    01:15:12.000 : en:01:15:12.000
    01:21:15.000 : en:01:21:15.000

    Скриншоты


    Скачать .torrent

    Скачать торрент-файл бесплатно и на максимальной скорости!

    Как скачивать? · Что такое торрент? · Рейтинг и ограничения

    !ВНИМАНИЕ!
    Сайт не распространяет и не хранит электронные версии произведений, а занимается лишь лишь предоставлением доступа к создаваемому пользователями каталогу ссылок на торрент-файлы, которые содержат только списки хеш-сумм, убедительная просьба с жалобами обращаться напрямую к пользователю. Файлы для обмена на трекере предоставлены пользователями сайта, и администрация не несёт ответственности за их содержание. Просьба не заливать файлы, защищенные авторскими правами, а также файлы нелегального содержания!


    _________________
    [Профиль] [ЛС]
    Показать сообщения:    
    Ответить на тему

    Текущее время: Сегодня, в 06:55

    Часовой пояс: GMT + 2



    Вы не можете начинать темы
    Вы не можете отвечать на сообщения
    Вы не можете редактировать свои сообщения
    Вы не можете удалять свои сообщения
    Вы не можете голосовать в опросах
    Вы не можете прикреплять файлы к сообщениям
    Вы не можете скачивать файлы