BitTorrentTracker PerecTracker.org
BitTorrentTracker PerecTracker.org
    
Регистрация  ·  Вход
 
 · 
Забыли пароль?

  • Опасный квартал / The Son of No One (Дито Монтиель / Dito Montiel) [2011, США, Боевик, триллер, криминал, HDRip] AVO (Юрий Живов) + Original Eng

    Ответить на тему
     
    Автор Сообщение

    Light

    Создавать темы 30-Авг-2016 14:22

           

    [Цитировать]

    Опасный квартал / The Son of No One
    Страна: США
    Жанр: Боевик, триллер, криминал
    Год выпуска: 2011
    Продолжительность: 01:33:46
    Перевод: Авторский (одноголосый закадровый) Юрий Живов
    Cубтитры: нет
    Оригинальная аудиодорожка: английский
    Режиссер: Дито Монтиель / Dito Montiel
    В ролях: Ченнинг Татум, Аль Пачино, Трэйси Морган, Кэти Холмс, Рэй Лиотта, Жюльетт Бинош, Джеймс Рэнсон, Брайан Гилберт, Джейк Черри, Симона Джой Джонс, Роджер Гуэнвёр Смит, Майкл Ривера, Шон Креган, Карен Кристи-Уорд, Питер Энтони Тамбакис, Мэрлин Добрин, Декорт Снайпс, Крэйг Уолкер, Джонни Мэй, Джизелла Маренго
    Описание: Главный герой — молодой полицейский, приписанный к участку в районе, где в основном проживает рабочий класс. Герой вырос в этом районе, и теперь, когда он вернулся сюда стражем закона, на поверхности оказался некий секрет, который может уничтожить как семью копа, так и его самого. Экранизация по произведению: Дито Монтиель.
    Сэмпл:http://multi-up.com/1115607
    Качество видео: HDRip (Исходник The Son of No One (2011) BDRip 1080p mkv)
    Формат видео: AVI
    Видео: XviD, 720x304, (2,35:1), 23,976 fps, 1810 Кбит/с, 8 бит
    Аудио: Русский (АС3, 2 ch (Front: L R), 48,0 KHz, 192 Kbps)
    Аудио 2: Английский (AC-3, 2 ch (Front: L R), 48,0 KHz, 192 Kbps)

    MediaInfo

    Общее
    Полное имя : F:\Видеофильмы\В и д е о\Опасный квартал (боевик криминал 2011год).avi
    Формат : AVI
    Формат/Информация : Audio Video Interleave
    Размер файла : 1,44 Гбайт
    Продолжительность : 1 ч. 33 м.
    Общий поток : 2197 Кбит/сек
    Программа кодирования : VirtualDubMod 1.5.10.2 (build 2540/release)
    Библиотека кодирования : VirtualDubMod build 2540/release
    Видео
    Идентификатор : 0
    Формат : MPEG-4 Visual
    Профиль формата : Advanced Simple@L5
    Параметр BVOP формата : 2
    Параметр QPel формата : Нет
    Параметр GMC формата : Без точки перехода
    Параметр матрицы формата : Выборочная
    Идентификатор кодека : XVID
    Идентификатор кодека/Подсказка : XviD
    Продолжительность : 1 ч. 33 м.
    Битрейт : 1810 Кбит/сек
    Ширина : 720 пикселей
    Высота : 304 пикселя
    Соотношение сторон : 2,35:1
    Частота кадров : 23,976 (23976/1000) кадра/сек
    Цветовое пространство : YUV
    Субдискретизация насыщенности : 4:2:0
    Битовая глубина : 8 бит
    Тип развёртки : Прогрессивная
    Метод сжатия : С потерями
    Бит/(Пиксели*Кадры) : 0.345
    Размер потока : 1,19 Гбайт (82%)
    Библиотека кодирования : XviD 1.2.1 (UTC 2008-12-04)
    Аудио #1
    Идентификатор : 1
    Формат : AC-3
    Формат/Информация : Audio Coding 3
    Расширение режима : CM (complete main)
    Параметр Endianness формата : Big
    Идентификатор кодека : 2000
    Продолжительность : 1 ч. 33 м.
    Вид битрейта : Постоянный
    Битрейт : 192 Кбит/сек
    Каналы : 2 канала
    Расположение каналов : Front: L R
    Частота : 48,0 КГц
    Частота кадров : 31,250 кадров/сек (1536 spf)
    Метод сжатия : С потерями
    Размер потока : 129 Мбайт (9%)
    Выравнивание : Разделение по промежуткам
    Продолжительность промежутка : 42 мс. (1,00 видеокадр)
    Время предзагрузки промежутка : 500 мс.
    Аудио #2
    Идентификатор : 2
    Формат : AC-3
    Формат/Информация : Audio Coding 3
    Расширение режима : CM (complete main)
    Параметр Endianness формата : Big
    Идентификатор кодека : 2000
    Продолжительность : 1 ч. 28 м.
    Вид битрейта : Постоянный
    Битрейт : 192 Кбит/сек
    Каналы : 2 канала
    Расположение каналов : Front: L R
    Частота : 48,0 КГц
    Частота кадров : 31,250 кадров/сек (1536 spf)
    Метод сжатия : С потерями
    Размер потока : 122 Мбайт (8%)
    Выравнивание : Разделение по промежуткам
    Продолжительность промежутка : 44 мс. (1,06 видеокадр)
    Время предзагрузки промежутка : 500 мс.

    Скриншот c названием фильма

    Скриншоты

    Скачать .torrent

    Скачать торрент-файл бесплатно и на максимальной скорости!

    Как скачивать? · Что такое торрент? · Рейтинг и ограничения

    !ВНИМАНИЕ!
    Сайт не распространяет и не хранит электронные версии произведений, а занимается лишь лишь предоставлением доступа к создаваемому пользователями каталогу ссылок на торрент-файлы, которые содержат только списки хеш-сумм, убедительная просьба с жалобами обращаться напрямую к пользователю. Файлы для обмена на трекере предоставлены пользователями сайта, и администрация не несёт ответственности за их содержание. Просьба не заливать файлы, защищенные авторскими правами, а также файлы нелегального содержания!


    _________________
    [Профиль] [ЛС]
    Показать сообщения:    
    Ответить на тему

    Текущее время: Сегодня, в 09:06

    Часовой пояс: GMT + 2



    Вы не можете начинать темы
    Вы не можете отвечать на сообщения
    Вы не можете редактировать свои сообщения
    Вы не можете удалять свои сообщения
    Вы не можете голосовать в опросах
    Вы не можете прикреплять файлы к сообщениям
    Вы не можете скачивать файлы