BitTorrentTracker PerecTracker.org
BitTorrentTracker PerecTracker.org
    
Регистрация  ·  Вход
 
 · 
Забыли пароль?

  • [ATV3] Черепашки-ниндзя 2 / Teenage Mutant Ninja Turtles: Out of the Shadows (Дэйв Грин / Dave Green ) [2016, США, Гонконг, Китай, Канада , Фантастика, боевик, комедия, приключения, WEB-DL, HD (1080p)] DUB + Original + sub (rus)

    Ответить на тему
     
    Автор Сообщение

    rechyn

    Создавать темы 30-Авг-2016 05:58

           

    [Цитировать]

    Черепашки-ниндзя 2 / Teenage Mutant Ninja Turtles: Out of the Shadows
    «Raise some shell»
    6.311 / 10 6.30 / 10
    -Год выпуска: 2016
    Страна: США, Гонконг, Китай, Канада
    Жанр: Фантастика, боевик, комедия, приключения
    Продолжительность: 01:52:15
    Перевод: Дублированный (iTunes)
    Оригинальная аудиодорожка: Есть
    Cубтитры: Русские форсированные, Русские
    Режиссёр: Дэйв Грин
    Сценарий: Джош Аппелбаум, Андре Немец, Питер Лэрд
    Продюсер: Эндрю Форм, Брэдли Фуллер, Скотт Медник
    Оператор: Лула Карвальо
    Композитор: Стив Яблонски
    Художник: Мартин Лэйн, Мигель Лопес-Кастильо, Бретт МакКензи
    Монтаж: Боб Дюксэй, Джим Мэй
    В ролях: Меган Фокс, Уилл Арнетт, Лора Линни, Стивен Амелл, Ноэль Фишер, Джереми Ховард, Пит Пложек, Алан Ричсон, Тайлер Перри, Брайан Ти
    Бюджет: $135 000 000
    Сборы в США: $81 987 616
    Сборы в мире: + $160 500 000 = $242 487 616
    Сборы в России: $9 798 717
    Мировая премьера: 22 мая 2016
    Премьера (РФ): 2 июня 2016, «Централ Партнершип»
    Описание: Долгое время черепашки-ниндзя скрывались от людей в лабиринтах городской канализации. На протяжении нескольких лет учитель Сплинтер обучал их боевым искусствам и прививал им чувство справедливости. В один прекрасный момент им пришлось подняться наверх, чтобы спасти Нью-Йорк от Шредера, предводителя Клана Футов, захватившего власть в Нью-Йорке. Вместе с отважным репортером Эйприл и ее оператором Верном, бесстрашные воины смогли одержать победу и очистить любимый город от преступности. Леонардо, Микеланджело, Рафаэль и Донателло нашли свое предназначение в этом мире и стали защитниками своего города. Они навели порядок в Нью-Йорке и с чистой совестью могли отправиться на покой, но однажды им вновь пришлось столкнуться с могущественным врагом, угрожающим их городу.-Качество исходника: WEB-DL 1080p (BlueBird)
    Качество: WEB-DL
    Тип: HD (1080p)
    Контейнер: M4V
    Видео: H.264, 1916x796, 2.40:1, 4 544 Kbps, 23.976 fps
    Аудио 1: Русский/Дублированный (iTunes), AAC / 2.0 / 160 Kbps / 48.0 KHz
    Аудио 2: Английский/Оригинальная дорожка , AAC / 2.0 / 160 Kbps / 48.0 KHz
    Аудио 3: Русский/Дублированный (iTunes), AC-3 / 5.1 / 384 Kbps / 48.0 KHz
    Субтитры 1: Русские форсированные
    Субтитры 2: Русские полные
    -

    iTunes Meta Tags

    Sort Name: Teenage Mutant Ninja Turtles: Out of the Shadows
    XID: Apple:vendor_id:2016-841518
    contentID: 1112687272
    Copyright: © MMXVI Paramount Pictures Corporation. All rights Reserved.
    Screenwriters: Джош Аппелбаум, Андре Немец
    Producers: Эндрю Форм, Брэдли Фуллер, Скотт Медник
    Director: Дэйв Грин
    Cast: Стивен Амелл, Меган Фокс, Алессандра Амброзио, Уилл Арнетт
    Studio: Paramount Pictures
    Rating: 4
    Long Description: Долгое время черепашки-ниндзя скрывались от людей в лабиринтах городской канализации. На протяжении нескольких лет учитель Сплинтер обучал их боевым искусствам и прививал им чувство справедливости. В один прекрасный момент им пришлось подняться наверх, чтобы спасти Нью-Йорк от Шредера, предводителя Клана Футов, захватившего власть в Нью-Йорке. Вместе с отважным репортером Эйприл и ее оператором Верном, бесстрашные воины смогли одержать победу и очистить любимый город от преступности. Леонардо, Микеланджело, Рафаэль и Донателло нашли свое предназначение в этом мире и стали защитниками своего города. Они навели порядок в Нью-Йорке и с чистой совестью могли отправиться на покой, но однажды им вновь пришлось столкнуться с могущественным врагом, угрожающим их городу.
    Description: Долгое время черепашки-ниндзя скрывались от людей в лабиринтах городской канализации. На протяжении нескольких лет учитель Сплинтер обучал их боевым искусствам и прививал им чувство справедливости. В один прекрасный момент им пришлось подняться наверх, чтобы спасти Нью-Йорк от Шредера, предводителя Клана Футов, захватившего власть в Нью-Йорке.
    Release Date: 2016-06-01T08:00:00Z
    Genre: Kids & Family
    Artist: Dave Green
    Name: Teenage Mutant Ninja Turtles: Out of the Shadows

    MediaInfo

    General
    Complete name : /Users/imac/HandBrake/Turtles.2.WEB-DL.1080p.m4v
    Format : MPEG-4
    Codec ID : M4V
    File size : 4.12 GiB
    Duration : 1h 52mn
    Overall bit rate mode : Variable
    Overall bit rate : 5 252 Kbps
    Movie name : Teenage Mutant Ninja Turtles: Out of the Shadows
    Performer : Dave Green
    Director : Дэйв Грин
    Actor : Стивен Амелл / Меган Фокс / Алессандра Амброзио / Уилл Арнетт
    Screenplay by : Джош Аппелбаум / Андре Немец
    Producer : Эндрю Форм / Брэдли Фуллер / Скотт Медник
    Production studio : Paramount Pictures
    Genre : Kids & Family
    ContentType : Short Film
    Description : Долгое время черепашки-ниндзя скрывались от людей в лабиринтах городской канализации. На протяжении нескольких лет учитель Сплинтер обучал их боевым искусствам и прививал им чувство справедливости. В один прекрасный момент им пришлось подняться наверх, чтобы спасти Нью-Йорк от Шредера, предводителя Клана Футов, захватившего власть в Нью-Йорке.
    Recorded date : UTC 2016-06-01 08:00:00
    Encoded date : UTC 2016-08-29 22:38:21
    Tagged date : UTC 2016-08-29 22:40:09
    Copyright : © MMXVI Paramount Pictures Corporation. All rights Reserved.
    Cover : Yes
    Rating : None
    Title/Sort : Teenage Mutant Ninja Turtles: Out of the Shadows
    LongDescription : Долгое время черепашки-ниндзя скрывались от людей в лабиринтах городской канализации. На протяжении нескольких лет учитель Сплинтер обучал их боевым искусствам и прививал им чувство справедливости. В один прекрасный момент им пришлось подняться наверх, чтобы спасти Нью-Йорк от Шредера, предводителя Клана Футов, захватившего власть в Нью-Йорке. Вместе с отважным репортером Эйприл и ее оператором Верном, бесстрашные воины смогли одержать победу и очистить любимый город от преступности. Леонардо, Микеланджело, Рафаэль и Донателло нашли свое предназначение в этом мире и стали защитниками своего города. Они навели порядок в Нью-Йорке и с чистой совестью могли отправиться на покой, но однажды им вновь пришлось столкнуться с могущественным врагом, угрожающим их городу.
    AppleStoreCatalogID : 1112687272
    Vendor : Apple:vendor_id:2016-841518
    ContentRating : mpaa|PG-13|300|
    Video #1
    ID : 1
    Format : AVC
    Format/Info : Advanced Video Codec
    Format profile : High@L4
    Format settings, CABAC : Yes
    Format settings, ReFrames : 5 frames
    Codec ID : avc1
    Codec ID/Info : Advanced Video Coding
    Duration : 1h 52mn
    Bit rate : 4 544 Kbps
    Width : 1 916 pixels
    Height : 796 pixels
    Display aspect ratio : 2.40:1
    Frame rate mode : Variable
    Frame rate : 23.976 fps
    Minimum frame rate : 22.727 fps
    Maximum frame rate : 24.390 fps
    Color space : YUV
    Chroma subsampling : 4:2:0
    Bit depth : 8 bits
    Scan type : Progressive
    Bits/(Pixel*Frame) : 0.124
    Stream size : 3.56 GiB (87%)
    Title : Main Program
    Language : English
    Encoded date : UTC 2016-08-29 22:38:21
    Tagged date : UTC 2016-08-29 22:38:30
    Color range : Limited
    Color primaries : BT.709
    Transfer characteristics : BT.709
    Matrix coefficients : BT.709
    Video #2
    ID : 8
    Format : JPEG
    Codec ID : jpeg
    Duration : 1h 52mn
    Bit rate mode : Variable
    Bit rate : 1 163 bps
    Width : 640 pixels
    Height : 265 pixels
    Display aspect ratio : 2.40:1
    Frame rate mode : Variable
    Frame rate : 0.003 fps
    Minimum frame rate : 0.002 fps
    Maximum frame rate : 0.006 fps
    Color space : YUV
    Chroma subsampling : 4:2:0
    Bit depth : 8 bits
    Compression mode : Lossy
    Bits/(Pixel*Frame) : 2.286
    Stream size : 852 KiB (0%)
    Title : Chapter Images
    Language : English
    Encoded date : UTC 2016-08-29 22:38:37
    Tagged date : UTC 2016-08-29 22:38:37
    Audio #1
    ID : 2
    Format : AAC
    Format/Info : Advanced Audio Codec
    Format profile : LC
    Codec ID : 40
    Duration : 1h 52mn
    Bit rate mode : Variable
    Bit rate : 157 Kbps
    Maximum bit rate : 267 Kbps
    Channel(s) : 2 channels
    Channel positions : Front: L R
    Sampling rate : 48.0 KHz
    Compression mode : Lossy
    Stream size : 126 MiB (3%)
    Title : Russian Stereo
    Language : Russian
    Encoded date : UTC 2016-08-29 22:38:21
    Tagged date : UTC 2016-08-29 22:38:30
    Audio #2
    ID : 3
    Format : AAC
    Format/Info : Advanced Audio Codec
    Format profile : LC
    Codec ID : 40
    Duration : 1h 52mn
    Bit rate mode : Variable
    Bit rate : 157 Kbps
    Maximum bit rate : 260 Kbps
    Channel(s) : 2 channels
    Channel positions : Front: L R
    Sampling rate : 48.0 KHz
    Compression mode : Lossy
    Stream size : 126 MiB (3%)
    Title : English Stereo
    Language : English
    Encoded date : UTC 2016-08-29 22:38:21
    Tagged date : UTC 2016-08-29 22:38:30
    Audio #3
    ID : 4
    Format : AC-3
    Format/Info : Audio Coding 3
    Mode extension : CM (complete main)
    Format settings, Endianness : Big
    Codec ID : ac-3
    Duration : 1h 52mn
    Bit rate mode : Constant
    Bit rate : 384 Kbps
    Channel(s) : 6 channels
    Channel positions : Front: L C R, Side: L R, LFE
    Sampling rate : 48.0 KHz
    Bit depth : 16 bits
    Compression mode : Lossy
    Stream size : 308 MiB (7%)
    Title : Russian DD 5.1
    Language : Russian
    Encoded date : UTC 2016-08-29 22:38:21
    Tagged date : UTC 2016-08-29 22:38:30
    Text #1
    ID : 5
    Format : Timed Text
    Muxing mode : sbtl
    Codec ID : tx3g
    Duration : 1h 44mn
    Bit rate mode : Variable
    Bit rate : 1 bps
    Stream size : 496 Bytes (0%)
    Title : Russian Forced
    Language : Russian
    Encoded date : UTC 2016-08-29 22:38:21
    Tagged date : UTC 2016-08-29 22:38:30
    Text #2
    ID : 6
    Format : Timed Text
    Muxing mode : sbtl
    Codec ID : tx3g
    Duration : 1h 44mn
    Bit rate mode : Variable
    Bit rate : 102 bps
    Stream size : 78.3 KiB (0%)
    Title : Russian Full-lenth
    Language : Russian
    Encoded date : UTC 2016-08-29 22:38:21
    Tagged date : UTC 2016-08-29 22:38:30
    Menu #1
    00:00:00.000 : 1
    00:05:54.000 : 2
    00:12:17.000 : 3
    00:18:52.000 : 4
    00:26:37.000 : 5
    00:33:13.000 : 6
    00:38:55.000 : 7
    00:44:10.000 : 8
    00:49:39.000 : 9
    00:55:39.000 : 10
    01:02:00.000 : 11
    01:04:51.000 : 12
    01:14:31.000 : 13
    01:21:17.000 : 14
    01:28:09.000 : 15
    01:36:57.000 : 16
    01:41:50.999 : 17
    01:46:20.000 : 18
    Menu #2
    ID : 7
    Codec ID : text
    Duration : 1h 52mn
    Language : English
    Encoded date : UTC 2016-08-29 22:38:31
    Tagged date : UTC 2016-08-29 22:38:31
    00:00:00.000 : 1
    00:05:54.000 : 2
    00:12:17.000 : 3
    00:18:52.000 : 4
    00:26:37.000 : 5
    00:33:13.000 : 6
    00:38:55.000 : 7
    00:44:10.000 : 8
    00:49:39.000 : 9
    00:55:39.000 : 10
    01:02:00.000 : 11
    01:04:51.000 : 12
    01:14:31.000 : 13
    01:21:17.000 : 14
    01:28:09.000 : 15
    01:36:57.000 : 16
    01:41:50.999 : 17
    01:46:20.000 : 18
    Bit rate mode : VBR

    Скриншоты


    -

    Релиз подготовлен для просмотра на Apple TV, iPad, iPhone, iPod Touch.
    Для просмотра данного релиза на компьютере с ОС Windows рекомендуется использовать VLC media player
    Скачать .torrent

    Скачать торрент-файл бесплатно и на максимальной скорости!

    Как скачивать? · Что такое торрент? · Рейтинг и ограничения

    !ВНИМАНИЕ!
    Сайт не распространяет и не хранит электронные версии произведений, а занимается лишь лишь предоставлением доступа к создаваемому пользователями каталогу ссылок на торрент-файлы, которые содержат только списки хеш-сумм, убедительная просьба с жалобами обращаться напрямую к пользователю. Файлы для обмена на трекере предоставлены пользователями сайта, и администрация не несёт ответственности за их содержание. Просьба не заливать файлы, защищенные авторскими правами, а также файлы нелегального содержания!


    _________________
    [Профиль] [ЛС]
    Показать сообщения:    
    Ответить на тему

    Текущее время: Сегодня, в 03:05

    Часовой пояс: GMT + 2



    Вы не можете начинать темы
    Вы не можете отвечать на сообщения
    Вы не можете редактировать свои сообщения
    Вы не можете удалять свои сообщения
    Вы не можете голосовать в опросах
    Вы не можете прикреплять файлы к сообщениям
    Вы не можете скачивать файлы