BitTorrentTracker PerecTracker.org
BitTorrentTracker PerecTracker.org
    
Регистрация  ·  Вход
 
 · 
Забыли пароль?

  • Братья Львиное сердце / Bröderna Lejonhjärta / Broderna Lejonhjarta / The Brothers Lionheart (Улле Хелльбум / Olle Hellbom) [1977, Швеция, Исландия, фэнтези, приключения, семейный, BDRip 720p] DVO (Stalk & weldika) + Sub Swe + Orig Swe

    Ответить на тему
     
    Автор Сообщение

    Light

    Создавать темы 30-Авг-2016 01:46

           

    [Цитировать]

    Братья Львиное сердце / Bröderna Lejonhjärta / Broderna Lejonhjarta
    The Brothers Lionheart

    Слоган: «Från vår värld. Till sagornas och lägereldarnas värld»
    Страна: Швеция, Исландия
    Студия: Artfilm, Svensk Filmindustri (SF)
    Жанр: фэнтези, приключения, семейный
    Год выпуска: 1977
    Продолжительность: 01:46:45
    Перевод: Любительский (двухголосый закадровый) - Stalk & weldika
    Cубтитры: шведские
    Оригинальная аудиодорожка: шведский
    Режиссер: Улле Хелльбум / Olle Hellbom
    В ролях: Стэффан Готесмам, Ларс Сёдердал, Аллан Эдвалль, Гунн Волльгрен, Фольке Йорт, Пер Оскарссон, Томми Джонсон, Жан Нюгрен, Миша Габэй, Георг Орлин ...
    Описание: Что ждёт нас после завершения жизни? Пустота? Облака и арфы? Реинкарнация в бабочку? А может — новый, удивительный мир, наполненный красками, беседами у тёплого костра и приключениями, о которых не смеешь и мечтать?
    Девятилетний Карл Лейон по прозвищу Сухарик болеет туберкулезом и знает, что вскоре умрет. Его старший брат Юнатан пытается его как-то утешить и обещает, что однажды они встретятся в волшебной стране Нангияле. Неожиданно Юнатан погибает при пожаре. Вскоре умирает и Сухарик. Они встречаются в Нангияле…
    Доп. информация: Исходники broderna.lejonhjarta.1977.swedish.720p.bluray.x264-idyll.DL найдены в сети.--Спасибо за рус. дорожку panas0125----Broderna Lejonhjarta_[The Brothers Lionheart]_(1977)_720p BDRip_Sample_.mkv-
    -

    Награды


    -
    -Тип релиза: BDRip 720p
    Контейнер: MKV
    Видео: x264, 1280x720, 16:9, 24.000 fps, 5 222 Kbps, Progressive, 0.236 Bits/(Pixel*Frame)
    Аудио 1: 48 kHz, AC3 Dolby Digital, 2/0 (L,R) ch, ~ 192 kbps, Русский
    Аудио 2: 48 kHz, AC3 Dolby Digital, 2/0 (L,R) ch, ~ 640 kbps, Шведский
    Формат субтитров: softsub (SRT)

    MediaInfo

    General
    Unique ID : 185907273375703112918061814544011545436 (0x8BDC703F65B146258D9C9A5CEF5ACB5C)
    Complete name : I:\111\z_D_Disk\Broderna Lejonhjarta_[The Brothers Lionheart]_(1977)_720p BDRip_.mkv
    Format : Matroska
    Format version : Version 4 / Version 2
    File size : 4.52 GiB
    Duration : 1 h 46 min
    Overall bit rate : 6 056 kb/s
    Encoded date : UTC 2016-08-26 06:50:47
    Writing application : mkvmerge v8.6.1 ('Flying') 64bit
    Writing library : libebml v1.3.3 + libmatroska v1.4.4
    Video
    ID : 1
    Format : AVC
    Format/Info : Advanced Video Codec
    Format profile : High@L4.1
    Format settings, CABAC : Yes
    Format settings, ReFrames : 5 frames
    Codec ID : V_MPEG4/ISO/AVC
    Duration : 1 h 46 min
    Bit rate : 5 222 kb/s
    Width : 1 280 pixels
    Height : 720 pixels
    Display aspect ratio : 16:9
    Frame rate mode : Constant
    Frame rate : 24.000 FPS
    Color space : YUV
    Chroma subsampling : 4:2:0
    Bit depth : 8 bits
    Scan type : Progressive
    Bits/(Pixel*Frame) : 0.236
    Stream size : 3.81 GiB (84%)
    Title : Bröderna Lejonhjärta_[The Brothers Lionheart]_(1977)_720p BDRip_[Muxed_by_rjhlb777]
    Writing library : x264 core 66 r1114 a933a3e
    Encoding settings : cabac=1 / ref=5 / deblock=1:0:0 / analyse=0x3:0x133 / me=umh / subme=7 / psy_rd=1.0:0.0 / mixed_ref=1 / me_range=16 / chroma_me=1 / trellis=1 / 8x8dct=1 / cqm=0 / deadzone=21,11 / chroma_qp_offset=-2 / threads=6 / nr=0 / decimate=1 / mbaff=0 / bframes=3 / b_pyramid=1 / b_adapt=1 / b_bias=0 / direct=1 / wpredb=1 / keyint=250 / keyint_min=25 / scenecut=40(pre) / rc=2pass / bitrate=5222 / ratetol=1.0 / qcomp=0.60 / qpmin=10 / qpmax=51 / qpstep=4 / cplxblur=20.0 / qblur=0.5 / ip_ratio=1.40 / pb_ratio=1.30 / aq=1:1.00
    Language : Swedish
    Default : Yes
    Forced : No
    Audio #1
    ID : 2
    Format : AC-3
    Format/Info : Audio Coding 3
    Mode extension : CM (complete main)
    Format settings, Endianness : Big
    Codec ID : A_AC3
    Duration : 1 h 46 min
    Bit rate mode : Constant
    Bit rate : 192 kb/s
    Channel(s) : 2 channels
    Channel positions : Front: L R
    Sampling rate : 48.0 kHz
    Frame rate : 31.250 FPS (1536 spf)
    Compression mode : Lossy
    Stream size : 147 MiB (3%)
    Title : DVO (Stalk & weldika)
    Language : Russian
    Default : Yes
    Forced : No
    Audio #2
    ID : 3
    Format : AC-3
    Format/Info : Audio Coding 3
    Mode extension : CM (complete main)
    Format settings, Endianness : Big
    Codec ID : A_AC3
    Duration : 1 h 46 min
    Bit rate mode : Constant
    Bit rate : 640 kb/s
    Channel(s) : 2 channels
    Channel positions : Front: L R
    Sampling rate : 48.0 kHz
    Frame rate : 31.250 FPS (1536 spf)
    Compression mode : Lossy
    Stream size : 489 MiB (11%)
    Title : Original
    Language : Swedish
    Default : No
    Forced : No
    Text
    ID : 4
    Format : UTF-8
    Codec ID : S_TEXT/UTF8
    Codec ID/Info : UTF-8 Plain Text
    Language : Swedish
    Default : No
    Forced : No

    Скриншоты






    -
    -
    -

    Коврик


    Скачать .torrent

    Скачать торрент-файл бесплатно и на максимальной скорости!

    Как скачивать? · Что такое торрент? · Рейтинг и ограничения

    !ВНИМАНИЕ!
    Сайт не распространяет и не хранит электронные версии произведений, а занимается лишь лишь предоставлением доступа к создаваемому пользователями каталогу ссылок на торрент-файлы, которые содержат только списки хеш-сумм, убедительная просьба с жалобами обращаться напрямую к пользователю. Файлы для обмена на трекере предоставлены пользователями сайта, и администрация не несёт ответственности за их содержание. Просьба не заливать файлы, защищенные авторскими правами, а также файлы нелегального содержания!


    _________________
    [Профиль] [ЛС]
    Показать сообщения:    
    Ответить на тему

    Текущее время: Сегодня, в 00:18

    Часовой пояс: GMT + 2



    Вы не можете начинать темы
    Вы не можете отвечать на сообщения
    Вы не можете редактировать свои сообщения
    Вы не можете удалять свои сообщения
    Вы не можете голосовать в опросах
    Вы не можете прикреплять файлы к сообщениям
    Вы не можете скачивать файлы