BitTorrentTracker PerecTracker.org
BitTorrentTracker PerecTracker.org
    
Регистрация  ·  Вход
 
 · 
Забыли пароль?

  • Мстители: Эра Альтрона / Avengers: Age of Ultron (Джосс Уидон / Joss Whedon ) [2015, США, Фантастика, боевик, приключения, BDRip, HD (720p)] DUB + Original + sub (rus, eng, ukr)

    Ответить на тему
     
    Автор Сообщение

    rechyn

    Создавать темы 29-Авг-2016 17:20

           

    [Цитировать]

    Мстители: Эра Альтрона / Avengers: Age of Ultron
    «A new age begins»
    7.315 / 10 7.50 / 10
    -Год выпуска: 2015
    Страна: США
    Жанр: Фантастика, боевик, приключения
    Продолжительность: 02:21:18
    Перевод: Дублированный (Blu-ray CEE)
    Оригинальная аудиодорожка: Есть
    Cубтитры: Русские форсированные, Английские форсированные, Русские, Английские, Украинские
    Режиссёр: Джосс Уидон
    Сценарий: Джосс Уидон, Стэн Ли, Джек Кирби
    Продюсер: Кевин Файги, Виктория Алонсо, Митчелл Белл
    Оператор: Бен Дэвис
    Композитор: Дэнни Элфман, Брайан Тайлер
    Художник: Чарльз Вуд, Джулиан Эшби, Томас Браун
    Монтаж: Джеффри Форд, Лиза Лэссек
    В ролях: Роберт Дауни мл., Крис Хемсворт, Крис Эванс, Скарлетт Йоханссон, Марк Руффало, Джереми Реннер, Аарон Тейлор-Джонсон, Элизабет Олсен, Джеймс Спэйдер, Сэмюэл Л. Джексон
    Бюджет: $250 000 000
    Сборы в США: $459 005 868
    Сборы в мире: + $946 408 000 = $1 405 413 868
    Сборы в России: $33 848 076
    Мировая премьера: 13 апреля 2015
    Премьера (РФ): 23 апреля 2015, «WDSSPR»
    Релиз на DVD: 22 сентября 2015, «Уолт Дисней Компани СНГ»
    Релиз на Blu-Ray: 22 сентября 2015, «Уолт Дисней Компани СНГ»
    Описание: Человечество на грани уничтожения. На этот раз людям угрожает Альтрон — искусственный интеллект, ранее созданный для того, чтобы защищать Землю от любых угроз. Однако, главной угрозой он посчитал человечество. Международная организация Щ. И. Т. распалась, и теперь мир не способен справиться с таким мощным врагом, потому люди вновь обращаются за помощью к Величайшим Героям Земли — Мстителям. Однако Альтрон слишком силен, и есть большая вероятность, что даже им не удастся остановить начало надвигающейся Эры Альтрона, где нет места для людей…-Качество исходника: BDRemux (HDClub)
    Качество: BDRip
    Тип: HD (720p)
    Контейнер: M4V
    Видео: H.264, 1280x544, 2.35:1, 3 500 Kbps, 23.976 fps
    Аудио 1: Русский/Дублированный (Blu-ray CEE), AAC / 2.0 / 160 Kbps / 48.0 KHz
    Аудио 2: Английский/Оригинальная дорожка , AAC / 2.0 / 160 Kbps / 48.0 KHz
    Аудио 3: Украинский/Дублированный , AAC / 2.0 / 160 Kbps / 48.0 KHz
    Аудио 4: Русский/Дублированный (Blu-ray CEE), AC-3 / 5.1 / 640 Kbps / 48.0 KHz
    Аудио 5: Английский/Оригинальная дорожка , AC-3 / 5.1 / 640 Kbps / 48.0 KHz
    Аудио 6: Украинский/Дублированный , AC-3 / 5.1 / 640 Kbps / 48.0 KHz
    Субтитры 1: Русские форсированные
    Субтитры 2: Английские форсированные
    Субтитры 3: Русские полные
    Субтитры 4: Английские полные
    Субтитры 5: Украинские полные
    -

    iTunes Meta Tags

    Sort Name: Avengers: Age of Ultron
    XID: Apple:vendor_id:2015-679830
    contentID: 983441161
    Copyright: © 2015 Marvel
    Screenwriters: Джосс Уидон, Стэн Ли, Джек Кирби
    Producers: Кевин Файги, Виктория Алонсо, Митчелл Белл
    Director: Джосс Уидон
    Cast: Роберт Дауни мл., Крис Хемсворт, Крис Эванс, Скарлетт Йоханссон, Марк Руффало, Джереми Реннер, Аарон Тейлор-Джонсон, Элизабет Олсен, Джеймс Спэйдер, Сэмюэл Л. Джексон
    Studio: Marvel
    Rating Annotation: Rated PG-13 for intense sequences of sci-fi action, violence and destruction, and for some suggestive comments.
    Rating: 4
    Long Description: Человечество на грани уничтожения. На этот раз людям угрожает Альтрон - искусственный интеллект, ранее созданный для того, чтобы защищать Землю от любых угроз. Однако, главной угрозой он посчитал человечество. Международная организация Щ. И. Т. распалась, и теперь мир не способен справиться с таким мощным врагом, потому люди вновь обращаются за помощью к Величайшим Героям Земли - Мстителям. Однако Альтрон слишком силен, и есть большая вероятность, что даже им не удастся остановить начало надвигающейся Эры Альтрона, где нет места для людей...
    Description: Человечество на грани уничтожения. На этот раз людям угрожает Альтрон - искусственный интеллект, ранее созданный для того, чтобы защищать Землю от любых угроз. Однако, главной угрозой он посчитал человечество...
    Release Date: 2015-04-13T08:00:00Z
    Genre: Sci-Fi & Fantasy
    Artist: Joss Whedon
    Name: Avengers: Age of Ultron

    MediaInfo

    General
    Complete name : /Users/imac/Download-BIGBOY/Avengers- Age of Ultron (720p HD).m4v
    Format : MPEG-4
    Codec ID : M4V
    File size : 5.83 GiB
    Duration : 2h 21mn
    Overall bit rate mode : Variable
    Overall bit rate : 5 888 Kbps
    Movie name : Avengers: Age of Ultron
    Performer : Joss Whedon
    Director : Джосс Уидон
    Actor : Роберт Дауни мл. / Крис Хемсворт / Крис Эванс / Скарлетт Йоханссон / Марк Руффало / Джереми Реннер / Аарон Тейлор-Джонсон / Элизабет Олсен / Джеймс Спэйдер / Сэмюэл Л. Джексон
    Screenplay by : Джосс Уидон / Стэн Ли / Джек Кирби
    Producer : Кевин Файги / Виктория Алонсо / Митчелл Белл
    Production studio : Marvel
    Genre : Sci-Fi & Fantasy
    ContentType : Short Film
    Description : Человечество на грани уничтожения. На этот раз людям угрожает Альтрон - искусственный интеллект, ранее созданный для того, чтобы защищать Землю от любых угроз. Однако, главной угрозой он посчитал человечество...
    Recorded date : UTC 2015-04-13 08:00:00
    Encoded date : UTC 2016-08-29 09:04:14
    Tagged date : UTC 2016-08-29 09:10:12
    Copyright : © 2015 Marvel
    Cover : Yes
    Rating : None
    Title/Sort : Avengers: Age of Ultron
    LongDescription : Человечество на грани уничтожения. На этот раз людям угрожает Альтрон - искусственный интеллект, ранее созданный для того, чтобы защищать Землю от любых угроз. Однако, главной угрозой он посчитал человечество. Международная организация Щ. И. Т. распалась, и теперь мир не способен справиться с таким мощным врагом, потому люди вновь обращаются за помощью к Величайшим Героям Земли - Мстителям. Однако Альтрон слишком силен, и есть большая вероятность, что даже им не удастся остановить начало надвигающейся Эры Альтрона, где нет места для людей...
    HDVideo : Yes
    AppleStoreCatalogID : 983441161
    Vendor : Apple:vendor_id:2015-679830
    ContentRating : mpaa|PG-13|300|Rated PG-13 for intense sequences of sci-fi action, violence and destruction, and for some suggestive comments.
    Video #1
    ID : 1
    Format : AVC
    Format/Info : Advanced Video Codec
    Format profile : High@L3.1
    Format settings, CABAC : No
    Format settings, ReFrames : 3 frames
    Codec ID : avc1
    Codec ID/Info : Advanced Video Coding
    Duration : 2h 21mn
    Source duration : 2h 21mn
    Bit rate : 3 500 Kbps
    Width : 1 280 pixels
    Height : 544 pixels
    Display aspect ratio : 2.35:1
    Frame rate mode : Variable
    Frame rate : 23.976 fps
    Minimum frame rate : 23.974 fps
    Maximum frame rate : 23.981 fps
    Color space : YUV
    Chroma subsampling : 4:2:0
    Bit depth : 8 bits
    Scan type : Progressive
    Bits/(Pixel*Frame) : 0.210
    Stream size : 3.45 GiB (59%)
    Source stream size : 3.45 GiB (59%)
    Title : Main Program
    Writing library : x264 core 142 r2479 dd79a61
    Encoding settings : cabac=0 / ref=3 / deblock=1:-3:-3 / analyse=0x3:0x113 / me=umh / subme=9 / psy=1 / psy_rd=1.00:0.15 / mixed_ref=1 / me_range=32 / chroma_me=1 / trellis=0 / 8x8dct=1 / cqm=0 / deadzone=21,11 / fast_pskip=0 / chroma_qp_offset=-2 / threads=36 / lookahead_threads=3 / sliced_threads=0 / nr=0 / decimate=0 / interlaced=0 / bluray_compat=0 / constrained_intra=0 / bframes=3 / b_pyramid=0 / b_adapt=2 / b_bias=0 / direct=1 / weightb=0 / open_gop=0 / weightp=0 / keyint=240 / keyint_min=24 / scenecut=40 / intra_refresh=0 / rc_lookahead=40 / rc=2pass / mbtree=1 / bitrate=3500 / ratetol=1.0 / qcomp=0.65 / qpmin=0 / qpmax=69 / qpstep=4 / cplxblur=20.0 / qblur=0.5 / vbv_maxrate=9500 / vbv_bufsize=9500 / nal_hrd=none / filler=0 / ip_ratio=1.40 / aq=1:1.10
    Language : English
    Encoded date : UTC 2016-08-29 09:04:15
    Tagged date : UTC 2016-08-29 09:04:22
    Color range : Limited
    Color primaries : BT.709
    Transfer characteristics : BT.709
    Matrix coefficients : BT.709
    Video #2
    ID : 14
    Format : JPEG
    Codec ID : jpeg
    Duration : 2h 21mn
    Bit rate mode : Variable
    Bit rate : 500 bps
    Width : 640 pixels
    Height : 272 pixels
    Display aspect ratio : 2.35:1
    Frame rate mode : Variable
    Frame rate : 0.002 fps
    Minimum frame rate : 0.001 fps
    Maximum frame rate : 0.005 fps
    Color space : YUV
    Chroma subsampling : 4:2:0
    Bit depth : 8 bits
    Compression mode : Lossy
    Bits/(Pixel*Frame) : 1.436
    Stream size : 428 KiB (0%)
    Title : Chapter Images
    Language : English
    Encoded date : UTC 2016-08-29 09:05:19
    Tagged date : UTC 2016-08-29 09:05:19
    Audio #1
    ID : 2
    Format : AAC
    Format/Info : Advanced Audio Codec
    Format profile : LC
    Codec ID : 40
    Duration : 2h 21mn
    Bit rate mode : Variable
    Bit rate : 157 Kbps
    Maximum bit rate : 246 Kbps
    Channel(s) : 2 channels
    Channel positions : Front: L R
    Sampling rate : 48.0 KHz
    Compression mode : Lossy
    Stream size : 159 MiB (3%)
    Title : Russian Stereo
    Language : Russian
    Encoded date : UTC 2016-08-29 09:04:15
    Tagged date : UTC 2016-08-29 09:05:16
    Audio #2
    ID : 3
    Format : AAC
    Format/Info : Advanced Audio Codec
    Format profile : LC
    Codec ID : 40
    Duration : 2h 21mn
    Bit rate mode : Variable
    Bit rate : 157 Kbps
    Maximum bit rate : 260 Kbps
    Channel(s) : 2 channels
    Channel positions : Front: L R
    Sampling rate : 48.0 KHz
    Compression mode : Lossy
    Stream size : 159 MiB (3%)
    Title : English Stereo
    Language : English
    Encoded date : UTC 2016-08-29 09:04:15
    Tagged date : UTC 2016-08-29 09:05:16
    Audio #3
    ID : 4
    Format : AAC
    Format/Info : Advanced Audio Codec
    Format profile : LC
    Codec ID : 40
    Duration : 2h 21mn
    Bit rate mode : Variable
    Bit rate : 157 Kbps
    Maximum bit rate : 242 Kbps
    Channel(s) : 2 channels
    Channel positions : Front: L R
    Sampling rate : 48.0 KHz
    Compression mode : Lossy
    Stream size : 159 MiB (3%)
    Title : Ukrainian Stereo
    Language : Ukrainian
    Encoded date : UTC 2016-08-29 09:04:15
    Tagged date : UTC 2016-08-29 09:05:16
    Audio #4
    ID : 5
    Format : AC-3
    Format/Info : Audio Coding 3
    Mode extension : CM (complete main)
    Format settings, Endianness : Big
    Codec ID : ac-3
    Duration : 2h 21mn
    Bit rate mode : Constant
    Bit rate : 640 Kbps
    Channel(s) : 6 channels
    Channel positions : Front: L C R, Side: L R, LFE
    Sampling rate : 48.0 KHz
    Bit depth : 16 bits
    Compression mode : Lossy
    Stream size : 647 MiB (11%)
    Title : Russian DD 5.1
    Language : Russian
    Encoded date : UTC 2016-08-29 09:04:15
    Tagged date : UTC 2016-08-29 09:05:16
    Audio #5
    ID : 6
    Format : AC-3
    Format/Info : Audio Coding 3
    Mode extension : CM (complete main)
    Format settings, Endianness : Big
    Codec ID : ac-3
    Duration : 2h 21mn
    Bit rate mode : Constant
    Bit rate : 640 Kbps
    Channel(s) : 6 channels
    Channel positions : Front: L C R, Side: L R, LFE
    Sampling rate : 48.0 KHz
    Bit depth : 16 bits
    Compression mode : Lossy
    Stream size : 647 MiB (11%)
    Title : English DD 5.1
    Language : English
    Encoded date : UTC 2016-08-29 09:04:15
    Tagged date : UTC 2016-08-29 09:05:16
    Audio #6
    ID : 7
    Format : AC-3
    Format/Info : Audio Coding 3
    Mode extension : CM (complete main)
    Format settings, Endianness : Big
    Codec ID : ac-3
    Duration : 2h 21mn
    Bit rate mode : Constant
    Bit rate : 640 Kbps
    Channel(s) : 6 channels
    Channel positions : Front: L C R, Side: L R, LFE
    Sampling rate : 48.0 KHz
    Bit depth : 16 bits
    Compression mode : Lossy
    Stream size : 649 MiB (11%)
    Title : Ukrainian DD 5.1
    Language : Ukrainian
    Encoded date : UTC 2016-08-29 09:04:15
    Tagged date : UTC 2016-08-29 09:05:16
    Text #1
    ID : 8
    Format : Timed Text
    Muxing mode : sbtl
    Codec ID : tx3g
    Duration : 2h 21mn
    Bit rate mode : Variable
    Bit rate : 0 bps
    Stream size : 500 Bytes (0%)
    Title : Russian Forced, iTunes
    Language : Russian
    Encoded date : UTC 2016-08-29 09:04:15
    Tagged date : UTC 2016-08-29 09:05:10
    Text #2
    ID : 9
    Format : Timed Text
    Muxing mode : sbtl
    Codec ID : tx3g
    Duration : 2h 7mn
    Bit rate mode : Variable
    Bit rate : 0 bps
    Stream size : 197 Bytes (0%)
    Title : English Forced, iTunes
    Language : English
    Encoded date : UTC 2016-08-29 09:04:15
    Tagged date : UTC 2016-08-29 09:04:50
    Text #3
    ID : 10
    Format : Timed Text
    Muxing mode : sbtl
    Codec ID : tx3g
    Duration : 2h 21mn
    Bit rate mode : Variable
    Bit rate : 89 bps
    Stream size : 92.3 KiB (0%)
    Title : Russian iTunes
    Language : Russian
    Encoded date : UTC 2016-08-29 09:04:15
    Tagged date : UTC 2016-08-29 09:05:13
    Text #4
    ID : 11
    Format : Timed Text
    Muxing mode : sbtl
    Codec ID : tx3g
    Duration : 2h 13mn
    Bit rate mode : Variable
    Bit rate : 62 bps
    Stream size : 60.1 KiB (0%)
    Title : English iTunes
    Language : English
    Encoded date : UTC 2016-08-29 09:04:15
    Tagged date : UTC 2016-08-29 09:05:13
    Text #5
    ID : 12
    Format : Timed Text
    Muxing mode : sbtl
    Codec ID : tx3g
    Duration : 2h 21mn
    Bit rate mode : Variable
    Bit rate : 91 bps
    Stream size : 93.9 KiB (0%)
    Title : Ukrainian iTunes
    Language : Ukrainian
    Encoded date : UTC 2016-08-29 09:04:15
    Tagged date : UTC 2016-08-29 09:05:13
    Menu #1
    00:00:00.000 : Battle for Loki\'s Scepter
    00:12:15.192 : Birth of Ultron
    00:21:23.948 : Avengers House Party
    00:33:01.771 : Attack Aftermath
    00:36:07.623 : Ultron Meers the Twins
    00:42:00.768 : Mind Games
    00:52:44.744 : Hulk vs. Hulkbuster
    00:59:01.871 : The Safe House
    01:15:51.088 : Cradle Robbing
    01:27:08.598 : Birthof the Vision
    01:36:44.757 : The Battle of Sokovia
    01:54:35.326 : \"Is That the Best You Can Do?\"
    02:06:27.580 : The New Avengers
    02:11:08.026 : End Credits
    Menu #2
    ID : 13
    Codec ID : text
    Duration : 2h 21mn
    Language : English
    Encoded date : UTC 2016-08-29 09:05:16
    Tagged date : UTC 2016-08-29 09:05:16
    00:00:00.000 : Battle for Loki\'s Scepter
    00:12:15.192 : Birth of Ultron
    00:21:23.948 : Avengers House Party
    00:33:01.771 : Attack Aftermath
    00:36:07.623 : Ultron Meers the Twins
    00:42:00.768 : Mind Games
    00:52:44.744 : Hulk vs. Hulkbuster
    00:59:01.871 : The Safe House
    01:15:51.088 : Cradle Robbing
    01:27:08.598 : Birthof the Vision
    01:36:44.757 : The Battle of Sokovia
    01:54:35.326 : \"Is That the Best You Can Do?\"
    02:06:27.580 : The New Avengers
    02:11:08.026 : End Credits
    Bit rate mode : VBR

    x264 лог

    x264 [info]: frame I:2739  Avg QP:14.36  size: 91056
    x264 [info]: frame P:83076 Avg QP:17.13  size: 30150
    x264 [info]: frame B:117472 Avg QP:19.02  size:  8110
    x264 [info]: consecutive B-frames:  9.1% 30.0% 34.6% 26.3%
    x264 [info]: mb I  I16..4:  7.5% 57.1% 35.4%
    x264 [info]: mb P  I16..4:  3.0% 10.5%  4.9%  P16..4: 42.9% 24.1%  9.3%  0.0%  0.0%    skip: 5.4%
    x264 [info]: mb B  I16..4:  0.3%  1.2%  0.7%  B16..8: 43.3% 11.3%  1.5%  direct: 4.2%  skip:37.5%  L0:39.1% L1:51.4% BI: 9.5%
    x264 [info]: 8x8 transform intra:57.0% inter:42.1%
    x264 [info]: coded y,uvDC,uvAC intra: 79.7% 77.6% 51.0% inter: 22.5% 19.6% 10.3%
    x264 [info]: i16 v,h,dc,p: 31% 16%  6% 47%
    x264 [info]: i8 v,h,dc,ddl,ddr,vr,hd,vl,hu:  8% 10%  5% 11% 14% 13% 15% 11% 13%
    x264 [info]: i4 v,h,dc,ddl,ddr,vr,hd,vl,hu:  9% 11%  4% 11% 16% 14% 15% 10%  9%
    x264 [info]: i8c dc,h,v,p: 48% 20% 19% 12%
    x264 [info]: ref P L0: 75.6% 14.9%  9.5%
    x264 [info]: ref B L0: 81.0% 19.0%
    x264 [info]: kb/s:3497.54

    Скриншоты

    -

    Релиз подготовлен для просмотра на Apple TV, iPad, iPhone, iPod Touch.
    Для просмотра данного релиза на компьютере с ОС Windows рекомендуется использовать VLC media player
    Скачать .torrent

    Скачать торрент-файл бесплатно и на максимальной скорости!

    Как скачивать? · Что такое торрент? · Рейтинг и ограничения

    !ВНИМАНИЕ!
    Сайт не распространяет и не хранит электронные версии произведений, а занимается лишь лишь предоставлением доступа к создаваемому пользователями каталогу ссылок на торрент-файлы, которые содержат только списки хеш-сумм, убедительная просьба с жалобами обращаться напрямую к пользователю. Файлы для обмена на трекере предоставлены пользователями сайта, и администрация не несёт ответственности за их содержание. Просьба не заливать файлы, защищенные авторскими правами, а также файлы нелегального содержания!


    _________________
    [Профиль] [ЛС]
    Показать сообщения:    
    Ответить на тему

    Текущее время: Сегодня, в 14:37

    Часовой пояс: GMT + 2



    Вы не можете начинать темы
    Вы не можете отвечать на сообщения
    Вы не можете редактировать свои сообщения
    Вы не можете удалять свои сообщения
    Вы не можете голосовать в опросах
    Вы не можете прикреплять файлы к сообщениям
    Вы не можете скачивать файлы