BitTorrentTracker PerecTracker.org
BitTorrentTracker PerecTracker.org
    
Регистрация  ·  Вход
 
 · 
Забыли пароль?

  • Репортерша / Whiskey Tango Foxtrot (Гленн Фикарра / Glenn Ficarra, Джон Рекуа / John Requa) [2016, США, Драма, комедия, военный, биография, BDRip] AVO (Карповский)

    Ответить на тему
     
    Автор Сообщение

    rechyn

    Создавать темы 29-Авг-2016 17:20

           

    [Цитировать]

    Репортерша / Whiskey Tango Foxtrot
    Страна: США
    Студия: Broadway Video Little Stranger, Paramount Pictures
    Жанр: Драма, комедия, военный, биография
    Год выпуска: 2016
    Продолжительность: 01:51:48
    Перевод: Авторский (одноголосый закадровый) Антон Карповский
    Cубтитры: русские (вшитые неотключаемые - на надписи и речь пуштунов)
    Оригинальная аудиодорожка: нет
    Режиссер: Гленн Фикарра / Glenn Ficarra, Джон Рекуа / John Requa
    В ролях: Тина Фей, Марго Робби, Мартин Фриман, Альфред Молина, Кристофер Эбботт, Билли Боб Торнтон, Николас Браун, Стивен Пикок, Шейла Ванд, Эван Йоникит, Фахим Анвар, Джош Чарльз, Черри Джонс, Скотт Такеда, Эли Гудман, Соледад О’Брайэн, Томас Кречман, Демостенс Крисан
    Описание: Фильм не столько про репортершу, сколько о жизненном выборе, когда выбора нет. В тяжелой среде обитания особо хочется виски в определённые моменты. Выпиваешь, и твоё жизненное танго превращается в фокстрот. Танго - воплощение размеренной вальяжной жизни, некоего разгона страстей. А что такое фокстрот, вообще? Foxtrot - лисья походка. Надо ходить по - хитрому, когда иначе никак - вот о чем фильм. Он о том, как размеренная жизнь, приносящая каждодневную неудовлетворенность в событиях, пресная и надоевшая к среднему возрасту нуждается во встряске или экстремальной поездке. Так, обычную, можно сказать затрапезную 40- летнюю журналистку с нарочито обыденным именем для Америки - Ким Бейкер, отсылают в долгосрочную командировку в Афганистан. Поездка провоцирует быстрые изменения в личной и профессиональной жизни Ким. Она расстается со старым бойфрендом, в её клочке западной жизни в Кабуле, появляются новые друзья - красивая циничная англичанка Тэния, шотландский фотограф - фрилансер Иян, генерал Холланек, а также многочисленные колоритные мусульмане.
    Дополнительная информация:
    Автор релиза - ylnian
    Заказ перевода у Антона Карповского (июль 2016) - ylnian
    За сборку дороги спасибо rammzez
    Источник для рипа - Blu-Ray (BD CEE) - WHISKEY_TANGO_FOXTROT_REMUX_HDCLUB
    Описание - из рецензии Антона Карповского


    Сэмпл: https://yadi.sk/i/3J003QXFuZAzF
    Качество видео: BDRip
    Формат видео: AVI
    Видео: XviD, 688x384 (16:9), 23.976 fps, 1417 kbps, 0.224 bit/pixel
    Аудио: Русский AC3, 48000 Гц, 6ch, 448 kbps

    MediaInfo

    Общее
    Полное имя : B:\Whiskey.Tango.Foxtrot.2016.BDRip-ylnian.avi
    Формат : AVI
    Формат/Информация : Audio Video Interleave
    Размер файла : 1,46 Гбайт
    Продолжительность : 1 ч. 51 м.
    Общий поток : 1875 Кбит/сек
    Программа кодирования : VirtualDubMod 1.5.10.2 (build 2540/release)
    Библиотека кодирования : VirtualDubMod build 2540/release
    Видео
    Идентификатор : 0
    Формат : MPEG-4 Visual
    Профиль формата : Advanced Simple@L5
    Параметр BVOP формата : 1
    Параметр QPel формата : Нет
    Параметр GMC формата : Без точки перехода
    Параметр матрицы формата : Выборочная
    Идентификатор кодека : XVID
    Идентификатор кодека/Подсказка : XviD
    Продолжительность : 1 ч. 51 м.
    Битрейт : 1417 Кбит/сек
    Ширина : 688 пикселей
    Высота : 384 пикселя
    Соотношение сторон : 16:9
    Частота кадров : 23,976 (24000/1001) кадра/сек
    Цветовое пространство : YUV
    Субдискретизация насыщенности : 4:2:0
    Битовая глубина : 8 бит
    Тип развёртки : Прогрессивная
    Метод сжатия : С потерями
    Бит/(Пиксели*Кадры) : 0.224
    Размер потока : 1,11 Гбайт (76%)
    Библиотека кодирования : XviD 73
    Аудио
    Идентификатор : 1
    Формат : AC-3
    Формат/Информация : Audio Coding 3
    Расширение режима : CM (complete main)
    Параметр Endianness формата : Big
    Идентификатор кодека : 2000
    Продолжительность : 1 ч. 51 м.
    Вид битрейта : Постоянный
    Битрейт : 448 Кбит/сек
    Каналы : 6 каналов
    Расположение каналов : Front: L C R, Side: L R, LFE
    Частота : 48,0 КГц
    Частота кадров : 31,250 кадров/сек (1536 spf)
    Метод сжатия : С потерями
    Размер потока : 358 Мбайт (24%)
    Выравнивание : Разделение по промежуткам
    Продолжительность промежутка : 42 мс. (1,00 видеокадр)
    Время предзагрузки промежутка : 500 мс.
    Заголовок : RUS - AVO - Karpovsky

    Скриншот c названием фильма

    Скриншоты

    Скачать .torrent

    Скачать торрент-файл бесплатно и на максимальной скорости!

    Как скачивать? · Что такое торрент? · Рейтинг и ограничения

    !ВНИМАНИЕ!
    Сайт не распространяет и не хранит электронные версии произведений, а занимается лишь лишь предоставлением доступа к создаваемому пользователями каталогу ссылок на торрент-файлы, которые содержат только списки хеш-сумм, убедительная просьба с жалобами обращаться напрямую к пользователю. Файлы для обмена на трекере предоставлены пользователями сайта, и администрация не несёт ответственности за их содержание. Просьба не заливать файлы, защищенные авторскими правами, а также файлы нелегального содержания!


    _________________
    [Профиль] [ЛС]
    Показать сообщения:    
    Ответить на тему

    Текущее время: Сегодня, в 22:09

    Часовой пояс: GMT + 2



    Вы не можете начинать темы
    Вы не можете отвечать на сообщения
    Вы не можете редактировать свои сообщения
    Вы не можете удалять свои сообщения
    Вы не можете голосовать в опросах
    Вы не можете прикреплять файлы к сообщениям
    Вы не можете скачивать файлы