BitTorrentTracker PerecTracker.org
BitTorrentTracker PerecTracker.org
    
Регистрация  ·  Вход
 
 · 
Забыли пароль?

  • Платье / dress (Генри Иэн Кьюсик / Henry Ian Cusick) [2013, США, драма, короткометражный, WEB-DLRip] MVO (BaibaKo) + Original Eng

    Ответить на тему
     
    Автор Сообщение

    Light

    Создавать темы 29-Авг-2016 13:08

           

    [Цитировать]

    Платье / dress-Страна: США
    Жанр: драма, короткометражка
    Год выпуска: 2013
    Продолжительность: 00:20:44
    Перевод: Профессиональный (многоголосый закадровый) BaibaKo
    Cубтитры: нет
    Оригинальная аудиодорожка: английский
    Перевод: Татьяна Saavick
    Озвучка: Светлана Доманова, Олекса Мельник и Акмал Гурезов
    Монтаж: Павел Дежин
    Режиссер: Генри Иэн Кьюсик / Henry Ian Cusick
    В ролях: Генри Иэн Кьюсик, Хо'Ану Ау, Ашер Абрахам, Мэйли Холк, Кэти Янг, Кордел Кекоа, Лоретта Эйблс-Описание: В основе сюжета лежит история англичанина, чья горячо любимая жена умерла, оставив его с двумя сыновьями. Не в силах справиться со скорбью, а также в попытке смягчить горе для младшего сына, главный герой решает переодеться в платье жены и в таком виде разгуливает по дому на радость малышу. Но старший сын и окружащие не в восторге от такой метаморфозы. Смогут ли отец и сын найти общий язык? Смотрите фильм! (особенно сцену ПОСЛЕ финальных титров).-Доп. информация: Исполнитель главной роли Генри Иэн Кьюсик (Десмонд Хьюм в сериале "Остаться в живых" и Маркус Кейн в сериале "Сотня") был не только соавтором сценария, режиссером и продюсером этого фильма, но и снял его в собственном доме на Гавайях.
    Фильм был признан лучшим короткометражным фильмом на 33-м ежегодном Гавайским международном кинофестивале в Гонолулу (2013)-Сэмпл: http://sendfile.su/1259663
    Качество видео: WEB-DLRip
    Формат видео: MKV
    Видео: AVC, 1920x822 (2.35:1) 24.00 fps, 5000 kbps
    Аудио 1: AC3, 44100 Hz, 384 kbps, 6 ch (5.1) (русская дорожка)
    Аудио 2: AC3, 48000 Hz, 640 kbps, 6 ch (5.1) (английская дорожка)
    Доп. информация о субтитрах: отсутствуют

    MediaInfo

    General
    Unique ID : 219302710796960332147216433904925701550 (0xA4FC2A6F4EB11F9FAE7CBBE9DA5E75AE)
    Complete name : D:\_dress\Dress.HD1080p.WEBRip.1080p.Rus.Eng.BaibaKo.tv.mkv
    Format : Matroska
    Format version : Version 4 / Version 2
    File size : 892 MiB
    Duration : 20mn 44s
    Overall bit rate : 6 012 Kbps
    Encoded date : UTC 2016-08-24 23:29:26
    Writing application : mkvmerge v8.5.2 ('Crosses') 64bit
    Writing library : libebml v1.3.3 + libmatroska v1.4.4
    DURATION : 00:20:44.683000000
    NUMBER_OF_FRAMES : 35736
    NUMBER_OF_BYTES : 59744756
    _STATISTICS_WRITING_APP : mkvmerge v8.5.2 ('Crosses') 64bit
    _STATISTICS_WRITING_DATE_UTC : 2016-08-24 23:29:26
    _STATISTICS_TAGS : BPS DURATION NUMBER_OF_FRAMES NUMBER_OF_BYTES
    Video #1
    ID : 1
    Format : AVC
    Format/Info : Advanced Video Codec
    Format profile : High@L4.1
    Format settings, CABAC : Yes
    Format settings, ReFrames : 4 frames
    Codec ID : V_MPEG4/ISO/AVC
    Duration : 20mn 44s
    Bit rate : 5 000 Kbps
    Width : 1 920 pixels
    Height : 822 pixels
    Display aspect ratio : 2.35:1
    Frame rate mode : Constant
    Frame rate : 24.000 fps
    Color space : YUV
    Chroma subsampling : 4:2:0
    Bit depth : 8 bits
    Scan type : Progressive
    Bits/(Pixel*Frame) : 0.132
    Stream size : 722 MiB (81%)
    Writing library : x264 core 142 r2479 dd79a61
    Audio #2
    ID : 2
    Format : AC-3
    Format/Info : Audio Coding 3
    Mode extension : CM (complete main)
    Format settings, Endianness : Big
    Codec ID : A_AC3
    Duration : 20mn 44s
    Bit rate mode : Constant
    Bit rate : 384 Kbps
    Channel(s) : 6 channels
    Channel positions : Front: L C R, Side: L R, LFE
    Sampling rate : 44.1 KHz
    Bit depth : 16 bits
    Compression mode : Lossy
    Stream size : 57.0 MiB (6%)
    Title : rus (BaibaKoTV)
    Language : Russian
    Default : Yes
    Forced : No
    Audio #3
    ID : 3
    Format : AC-3
    Format/Info : Audio Coding 3
    Mode extension : CM (complete main)
    Format settings, Endianness : Big
    Codec ID : A_AC3
    Duration : 20mn 44s
    Bit rate mode : Constant
    Bit rate : 640 Kbps
    Channel(s) : 6 channels
    Channel positions : Front: L C R, Side: L R, LFE
    Sampling rate : 48.0 KHz
    Bit depth : 16 bits
    Compression mode : Lossy
    Stream size : 95.0 MiB (11%)
    Title : eng
    Language : English
    Default : No
    Forced : No

    Скриншот c названием фильма

    Скриншоты

    Скачать .torrent

    Скачать торрент-файл бесплатно и на максимальной скорости!

    Как скачивать? · Что такое торрент? · Рейтинг и ограничения

    !ВНИМАНИЕ!
    Сайт не распространяет и не хранит электронные версии произведений, а занимается лишь лишь предоставлением доступа к создаваемому пользователями каталогу ссылок на торрент-файлы, которые содержат только списки хеш-сумм, убедительная просьба с жалобами обращаться напрямую к пользователю. Файлы для обмена на трекере предоставлены пользователями сайта, и администрация не несёт ответственности за их содержание. Просьба не заливать файлы, защищенные авторскими правами, а также файлы нелегального содержания!


    _________________
    [Профиль] [ЛС]
    Показать сообщения:    
    Ответить на тему

    Текущее время: Сегодня, в 12:38

    Часовой пояс: GMT + 2



    Вы не можете начинать темы
    Вы не можете отвечать на сообщения
    Вы не можете редактировать свои сообщения
    Вы не можете удалять свои сообщения
    Вы не можете голосовать в опросах
    Вы не можете прикреплять файлы к сообщениям
    Вы не можете скачивать файлы