BitTorrentTracker PerecTracker.org
BitTorrentTracker PerecTracker.org
    
Регистрация  ·  Вход
 
 · 
Забыли пароль?

  • Равные / Equals (Дрейк Доримус / Drake Doremus) [2015, США, фантастика, драма, мелодрама, BDRip-AVC] Dub + Original Eng

    Ответить на тему
     
    Автор Сообщение

    Light

    Создавать темы 29-Авг-2016 13:08

           

    [Цитировать]

    Равные / Equals«В любви все равны»RUS Transfer-Страна: США
    Жанр: фантастика, драма, мелодрама
    Год выпуска: 2015
    Продолжительность: 01:41:51-Перевод: Профессиональный (дублированный) BD RUS
    Cубтитры: нет
    Оригинальная аудиодорожка: английский-Режиссер: Дрейк Доримус / Drake Doremus
    В ролях: Николас Холт, Кристен Стюарт, Гай Пирс, Джеки Уивер, Тоби Хасс, Дэвид Селби, Кейт Лин Шейл, Ребекка Хэзлвуд, Тео Ю, Аврора Периньо
    Описание: Фильм «Равные» рассказывает историю Сайласа, который живет в будущем, в обществе, названном «Коллектив». Жители этого современного мира — новое поколение людей, называемое «Равными». Равные — это мирные, спокойные, вежливые и справедливые люди, и жизнь в «Коллективе» идеальна. В нем не существует ни бедности, ни жадности, ни насилия, ни эмоций… Но над обществом нависает новая угроза: заболевание «SOS» или «Синдром Общественной Сознательности», жертвы которого подвергаются всему, чего, как они думали, избежали: депрессия, уязвимость, страх, любовь. Если правительство обнаружит человека, зараженного «SOS», его сразу же заберут в Нору, после чего этого человека уже никто и никогда не увидит.
    Когда главный герой обнаруживает, что он тоже заражен, он становится изгоем, но замечает одного человека, который, как ему кажется, понимает, через что ему приходится проходить. В это время правительство заявляет о том, что лекарство от болезни «включенных эмоций» было найдено, и главные герои вынуждены искать способ выжить.--Качество видео: BDRip-AVC [BDRemux / EQUALS_REMUX_HDCLUB]
    Формат видео: MKV
    Видео: AVC, 1152*648 (16:9), 1 189 kb/s, 25 fps, 0.064 bit/pixel
    Аудио 1: AC-3, 48.0 KHz, 448 Kbps, 5.1 ch [Rus]
    Аудио 2: AC-3, 48.0 KHz, 448 Kbps, 5.1 ch [Eng]

    MediaInfo

    General
    Unique ID : 201592876753994207848456358750844482337 (0x97A96033E04FF133A7A7740BBAD9F321)
    Complete name : C:\Movie\Равные (Equals) 2015.mkv
    Format : Matroska
    Format version : Version 4 / Version 2
    File size : 1.49 GiB
    Duration : 1 h 41 min
    Overall bit rate : 2 089 kb/s
    Encoded date : UTC 2016-08-28 13:08:53
    Writing application : mkvmerge v9.2.0 ('Photograph') 32bit
    Writing library : libebml v1.3.3 + libmatroska v1.4.4
    Cover : Yes
    Attachments : cover.png
    Video
    ID : 1
    Format : AVC
    Format/Info : Advanced Video Codec
    Format profile : High@L4.1
    Format settings, CABAC : Yes
    Format settings, ReFrames : 10 frames
    Codec ID : V_MPEG4/ISO/AVC
    Duration : 1 h 41 min
    Bit rate : 1 189 kb/s
    Width : 1 152 pixels
    Height : 648 pixels
    Display aspect ratio : 16:9
    Frame rate mode : Constant
    Frame rate : 25.000 FPS
    Color space : YUV
    Chroma subsampling : 4:2:0
    Bit depth : 8 bits
    Scan type : Progressive
    Bits/(Pixel*Frame) : 0.064
    Stream size : 866 MiB (57%)
    Writing library : x264 core 148 r2638 7599210
    Encoding settings : cabac=1 / ref=10 / deblock=1:-3:-2 / analyse=0x3:0x133 / me=umh / subme=11 / psy=1 / psy_rd=1.00:0.00 / mixed_ref=1 / me_range=32 / chroma_me=1 / trellis=2 / 8x8dct=1 / cqm=0 / deadzone=21,11 / fast_pskip=1 / chroma_qp_offset=-2 / threads=6 / lookahead_threads=1 / sliced_threads=0 / nr=0 / decimate=1 / interlaced=0 / bluray_compat=0 / constrained_intra=0 / bframes=12 / b_pyramid=2 / b_adapt=2 / b_bias=0 / direct=3 / weightb=1 / open_gop=0 / weightp=2 / keyint=250 / keyint_min=25 / scenecut=40 / intra_refresh=0 / rc_lookahead=60 / rc=crf / mbtree=1 / crf=17.9 / qcomp=0.60 / qpmin=0 / qpmax=69 / qpstep=4 / vbv_maxrate=62500 / vbv_bufsize=78125 / crf_max=0.0 / nal_hrd=none / filler=0 / ip_ratio=1.40 / aq=1:1.00
    Default : Yes
    Forced : No
    Audio #1
    ID : 2
    Format : AC-3
    Format/Info : Audio Coding 3
    Mode extension : CM (complete main)
    Format settings, Endianness : Big
    Codec ID : A_AC3
    Duration : 1 h 41 min
    Bit rate mode : Constant
    Bit rate : 448 kb/s
    Channel(s) : 6 channels
    Channel positions : Front: L C R, Side: L R, LFE
    Sampling rate : 48.0 kHz
    Frame rate : 31.250 FPS (1536 spf)
    Compression mode : Lossy
    Stream size : 326 MiB (21%)
    Title : Dub
    Language : Russian
    Default : Yes
    Forced : No
    Audio #2
    ID : 3
    Format : AC-3
    Format/Info : Audio Coding 3
    Mode extension : CM (complete main)
    Format settings, Endianness : Big
    Codec ID : A_AC3
    Duration : 1 h 41 min
    Bit rate mode : Constant
    Bit rate : 448 kb/s
    Channel(s) : 6 channels
    Channel positions : Front: L C R, Side: L R, LFE
    Sampling rate : 48.0 kHz
    Frame rate : 31.250 FPS (1536 spf)
    Compression mode : Lossy
    Stream size : 326 MiB (21%)
    Title : Original
    Language : English
    Default : No
    Forced : No
    Menu
    00:00:00.000 : :Chapter 01
    00:05:00.000 : :Chapter 02
    00:10:00.000 : :Chapter 03
    00:15:00.000 : :Chapter 04
    00:20:00.000 : :Chapter 05
    00:25:00.000 : :Chapter 06
    00:30:00.000 : :Chapter 07
    00:35:00.000 : :Chapter 08
    00:40:00.000 : :Chapter 09
    00:45:00.000 : :Chapter 10
    00:50:00.000 : :Chapter 11
    00:55:00.000 : :Chapter 12
    01:00:00.000 : :Chapter 13
    01:05:00.000 : :Chapter 14
    01:10:00.000 : :Chapter 15
    01:15:00.000 : :Chapter 16
    01:20:00.000 : :Chapter 17
    01:25:00.000 : :Chapter 18
    01:30:00.000 : :Chapter 19
    01:35:00.000 : :Chapter 20
    01:40:00.000 : :Chapter 21

    x264

    x264 [info]: frame I:876 Avg QP:13.39 size: 58685
    x264 [info]: frame P:25320 Avg QP:17.19 size: 12434
    x264 [info]: frame B:126599 Avg QP:19.00 size: 4284
    x264 [info]: consecutive B-frames: 1.5% 1.8% 3.3% 4.7% 10.1% 33.4% 11.3% 3.1% 7.8% 3.4% 5.1% 8.2% 6.3%
    x264 [info]: mb I I16..4: 19.6% 62.0% 18.4%
    x264 [info]: mb P I16..4: 1.2% 2.9% 0.4% P16..4: 31.9% 32.0% 6.4% 0.7% 0.1% skip:24.4%
    x264 [info]: mb B I16..4: 0.1% 0.2% 0.0% B16..8: 37.4% 11.7% 1.0% direct: 1.1% skip:48.6% L0:45.9% L1:51.6% BI: 2.6%
    x264 [info]: 8x8 transform intra:64.3% inter:68.5%
    x264 [info]: direct mvs spatial:99.5% temporal:0.5%
    x264 [info]: coded y,uvDC,uvAC intra: 64.9% 56.5% 32.5% inter: 6.2% 6.3% 0.6%
    x264 [info]: i16 v,h,dc,p: 19% 10% 4% 67%
    x264 [info]: i8 v,h,dc,ddl,ddr,vr,hd,vl,hu: 8% 5% 6% 12% 16% 15% 14% 13% 12%
    x264 [info]: i4 v,h,dc,ddl,ddr,vr,hd,vl,hu: 10% 6% 7% 14% 16% 12% 12% 10% 12%
    x264 [info]: i8c dc,h,v,p: 27% 36% 20% 17%
    x264 [info]: Weighted P-Frames: Y:3.5% UV:2.1%
    x264 [info]: ref P L0: 49.7% 4.9% 18.1% 7.3% 5.5% 4.5% 3.7% 2.1% 1.9% 2.0% 0.2% 0.0%
    x264 [info]: ref B L0: 67.9% 13.8% 7.6% 3.5% 2.6% 2.0% 1.7% 0.6% 0.2%
    x264 [info]: ref B L1: 89.6% 10.4%
    x264 [info]: kb/s:1189.23

    Скриншоты

    -
    Скачать .torrent

    Скачать торрент-файл бесплатно и на максимальной скорости!

    Как скачивать? · Что такое торрент? · Рейтинг и ограничения

    !ВНИМАНИЕ!
    Сайт не распространяет и не хранит электронные версии произведений, а занимается лишь лишь предоставлением доступа к создаваемому пользователями каталогу ссылок на торрент-файлы, которые содержат только списки хеш-сумм, убедительная просьба с жалобами обращаться напрямую к пользователю. Файлы для обмена на трекере предоставлены пользователями сайта, и администрация не несёт ответственности за их содержание. Просьба не заливать файлы, защищенные авторскими правами, а также файлы нелегального содержания!


    _________________
    [Профиль] [ЛС]
    Показать сообщения:    
    Ответить на тему

    Текущее время: Сегодня, в 11:46

    Часовой пояс: GMT + 2



    Вы не можете начинать темы
    Вы не можете отвечать на сообщения
    Вы не можете редактировать свои сообщения
    Вы не можете удалять свои сообщения
    Вы не можете голосовать в опросах
    Вы не можете прикреплять файлы к сообщениям
    Вы не можете скачивать файлы