BitTorrentTracker PerecTracker.org
BitTorrentTracker PerecTracker.org
    
Регистрация  ·  Вход
 
 · 
Забыли пароль?

  • Раны острова / Les blessures de l\'ile (Эдвин Бэйли / Edwin Baily) [2015, Франция, Швейцария, детектив, драма, DVB] Original (Fre) + Sub (Rus, Eng, Fre, Deu)

    Ответить на тему
     
    Автор Сообщение

    Light

    Создавать темы 29-Авг-2016 04:44

           

    [Цитировать]

    Раны острова
    Les blessures de l'île-Страна: Франция, Швейцария
    Жанр: детектив, драма
    Год выпуска: 2015
    Продолжительность: 01:29:33
    Перевод: Субтитры (перевод М.Лабори, Éclair Media)
    Cубтитры: русские, английские, французские, немецкие, нидерландские
    Оригинальная аудиодорожка: французский
    Режиссер: Эдвин Бэйли / Edwin BailyВ ролях: Стефан Фрейсс / Stephane Freiss (Grégor Gourvennec), Флор Бонавентура / Flore Bonaventura (Manon Legal), Франсуа Мартуре / François Marthouret (Erwan Le Fur), Софи Ле Теллье / Sophie Le Tellier (Gwenn Thorez), Мари-Жозе Нат / Marie-José Nat (Jeanne Gourvennec)
    Описание: Манон Легаль заканчивает длительные исследования в области нейрохирургии. В качестве эксперта она отправляется на отдаленный бретонский остров, где впервые за столетие произошло убийство в "Доме на окраине", уже долгое время стоящем пустым и пугающим местных жителей призраками. Расследовать это преступление вместе с ней отправляется инспектор Грегор Гурвеннек, уроженец тех мест. Начавшийся шторм отрезает остров от материка, а расследование неожиданно вскрывает забытые тайны прошлого...
    Доп. информация: Hot Bird (13.0°E) TV5MONDE Europe DVB-S

    Качество видео: DVB
    Формат видео: MKV
    Видео: MPEG Video 2, 720x576@1024x576 (16:9), 25 fps, ~2904 kbps avg, 0.280 bit/pixel
    Аудио: MPEG Audio 2, 2 ch, 48 kHz, 192 kbps - французский
    Формат субтитров: softsub (SRT)

    Пример субтитров

    100:00:55,589 --> 00:00:57,262-Идем посмотрим.-А стоит?
    200:00:57,262 --> 00:00:58,951Да. Идем!
    300:00:58,951 --> 00:01:01,951Ладно, иду.
    400:01:09,949 --> 00:01:12,949Дом на продажу
    500:01:34,107 --> 00:01:37,107РАНЫ ОСТРОВА
    600:01:56,388 --> 00:01:58,947Сегодня Рождество.Ничего себе подарок!
    700:01:58,947 --> 00:02:01,947Если бы знал,не стал бы столько жрать.
    800:02:11,664 --> 00:02:14,664Жандармерия
    900:02:27,106 --> 00:02:30,106Вы что, больная?За борт хотите свалиться?
    1000:02:30,349 --> 00:02:33,349-Мне плохо.-Небольшая волна, а вы сразу скисли.
    1100:02:33,989 --> 00:02:36,989Через 15 минутприплывем.
    1200:03:03,946 --> 00:03:05,107Капитан.
    1300:03:05,107 --> 00:03:08,107Спасибо.Здесь мне это ни к чему.
    1400:03:08,907 --> 00:03:11,308Жаль, что поводдля приезда неудачный.
    1500:03:11,308 --> 00:03:13,910Приветствую тебя, мэр.
    1600:03:13,910 --> 00:03:16,910Первое за 100 лет преступлениена острове. Представляешь?
    1700:03:53,989 --> 00:03:56,989Веселенькое местечко, а?
    1800:03:57,186 --> 00:03:58,266Я очень давно
    1900:03:58,266 --> 00:04:01,266сюда не приезжал.
    2000:04:02,586 --> 00:04:04,468-Кто там живет?-Никто.

    MediaInfo

    GeneralUnique ID : 177481540827368673067459398345823476113 (0x8585B38F5046025A88717EE18701D991)Complete name : [apreder]Les_blessures_de_l'ile(2015)DVB.mkvFormat : MatroskaFormat version : Version 2File size : 1.98 GiBDuration : 1 h 29 minOverall bit rate : 3 159 kb/sMovie name : Les blessures de l'оleReleased date : 2015-10-16Encoded date : UTC 2016-08-28 07:17:52Writing application : mkvmerge v9.4.0 ('Knurl') 64bitWriting library : libebml v1.3.4 + libmatroska v1.4.5Cover : YesAttachments : cover.png / small_cover.pngACTOR : Stйphane Freiss, Flore Bonaventura, Franзois MarthouretDIRECTOR : Edwin BailyGENRE : Crime, DramaIMDB : tt4198784KEYWORDS : perectracker.orgLAW_RATING : 16+
    VideoID : 1Format : MPEG VideoFormat version : Version 2Format profile : Main@MainFormat settings, BVOP : YesFormat settings, Matrix : CustomFormat settings, GOP : M=4, N=12Format settings, picture structure : FrameCodec ID : V_MPEG2Codec ID/Info : MPEG 1 or 2 VideoDuration : 1 h 29 minBit rate : 2 904 kb/sMaximum bit rate : 3 200 kb/sWidth : 720 pixelsHeight : 576 pixelsDisplay aspect ratio : 16:9Frame rate mode : ConstantFrame rate : 25.000 FPSStandard : PALColor space : YUVChroma subsampling : 4:2:0Bit depth : 8 bitsScan type : InterlacedScan order : Top Field FirstCompression mode : LossyBits/(Pixel*Frame) : 0.280Stream size : 1.82 GiB (92%)Default : YesForced : No
    AudioID : 2Format : MPEG AudioFormat version : Version 1Format profile : Layer 2Mode : Joint stereoMode extension : Intensity Stereo + MS StereoCodec ID : A_MPEG/L2Codec ID/Hint : MP2Duration : 1 h 29 minBit rate mode : ConstantBit rate : 192 kb/sChannel(s) : 2 channelsSampling rate : 48.0 kHzCompression mode : LossyStream size : 123 MiB (6%)Language : FrenchDefault : YesForced : No
    Text #1ID : 3Format : UTF-8Codec ID : S_TEXT/UTF8Codec ID/Info : UTF-8 Plain TextLanguage : RussianDefault : NoForced : No
    Text #2ID : 4Format : UTF-8Codec ID : S_TEXT/UTF8Codec ID/Info : UTF-8 Plain TextLanguage : EnglishDefault : NoForced : No
    Text #3ID : 5Format : UTF-8Codec ID : S_TEXT/UTF8Codec ID/Info : UTF-8 Plain TextLanguage : FrenchDefault : NoForced : No
    Text #4ID : 6Format : UTF-8Codec ID : S_TEXT/UTF8Codec ID/Info : UTF-8 Plain TextLanguage : GermanDefault : NoForced : No
    Text #5ID : 7Format : UTF-8Codec ID : S_TEXT/UTF8Codec ID/Info : UTF-8 Plain TextLanguage : DutchDefault : NoForced : No

    Скриншот c названием фильма

    Скриншоты


    Резервные скриншоты


    -
    Скачать .torrent

    Скачать торрент-файл бесплатно и на максимальной скорости!

    Как скачивать? · Что такое торрент? · Рейтинг и ограничения

    !ВНИМАНИЕ!
    Сайт не распространяет и не хранит электронные версии произведений, а занимается лишь лишь предоставлением доступа к создаваемому пользователями каталогу ссылок на торрент-файлы, которые содержат только списки хеш-сумм, убедительная просьба с жалобами обращаться напрямую к пользователю. Файлы для обмена на трекере предоставлены пользователями сайта, и администрация не несёт ответственности за их содержание. Просьба не заливать файлы, защищенные авторскими правами, а также файлы нелегального содержания!


    _________________
    [Профиль] [ЛС]
    Показать сообщения:    
    Ответить на тему

    Текущее время: Сегодня, в 15:03

    Часовой пояс: GMT + 2



    Вы не можете начинать темы
    Вы не можете отвечать на сообщения
    Вы не можете редактировать свои сообщения
    Вы не можете удалять свои сообщения
    Вы не можете голосовать в опросах
    Вы не можете прикреплять файлы к сообщениям
    Вы не можете скачивать файлы