BitTorrentTracker PerecTracker.org
BitTorrentTracker PerecTracker.org
    
Регистрация  ·  Вход
 
 · 
Забыли пароль?

  • Книга джунглей / The Jungle Book (Джон Фавро / Jon Favreau) [2016, Великобритания, США, фэнтези, драма, приключения, семейный, BDRip 720p] Dub + Sub Rus, Eng + Original Eng

    Ответить на тему
     
    Автор Сообщение

    Light

    Создавать темы 27-Авг-2016 23:31

           

    [Цитировать]

    Книга джунглей / The Jungle Book
    Страна: Великобритания, США
    Студия: Walt Disney Pictures
    Жанр: Фэнтези, драма, приключения, семейный
    Год выпуска: 2016
    Продолжительность: 01:45:55
    Перевод: Профессиональный (дублированный)
    Cубтитры: Rus, Eng
    Оригинальная аудиодорожка: английский
    Режиссер: Джон Фавро / Jon Favreau
    В ролях: Нил Сетхи, Билл Мюррей, Бен Кингсли, Идрис Эльба, Лупита Нионго, Скарлетт Йоханссон, Джанкарло Эспозито, Кристофер Уокен, Гарри Шендлинг, Брайтон Роуз
    Описание: Это не просто история найденыша, ставшего волчонком и равным среди животных. Это история любви, преданности, смелости, история ученичества и наставничества, когда учитель жизнью отвечает за умения ученика. Ведь Маугли - детеныш человека, а значит, слабее любого щенка. И мудрым учителям: приютившим «лягушонка» волкам, Багире, Балу и Каа, нужно научить своего подопечного выживать в безумно богатых на опасности джунглях, а главное - уберечь от Шерхана, возненавидевшего нового обитателя с момента его появления.

    Тип релиза: BDRip 720p
    Контейнер: MKV
    Видео: MPEG-4 AVC, 7989 Кбит/с, 1280x692, 23,976 fps
    Аудио: Rus, AC3, 640 kb/s (6 ch), 48 kHz
    Аудио 2: Eng, DTS, 1510 kb/s (6 ch), 48 kHz
    Формат субтитров: softsub (SRT)

    MediaInfo

    x264 [info]: frame I:1196 Avg QP:14.51 size:182787
    x264 [info]: frame P:34889 Avg QP:16.55 size: 77039
    x264 [info]: frame B:116274 Avg QP:17.57 size: 30962
    Format : Matroska
    Format version : Version 4 / Version 2
    File size : 7.65 GiB
    Duration : 1h 45mn
    Overall bit rate : 10.3 Mbps
    Movie name : Книга джунглей. (Tonik)
    Encoded date : UTC 2016-08-27 17:51:50
    Writing application : mkvmerge v7.1.0 ('Good Love') 64bit built on Jul 27 2014 13:06:55
    Writing library : libebml v1.3.0 + libmatroska v1.4.1
    _STATISTICS_WRITING_APP : mkvmerge v7.1.0 ('Good Love') 64bit built on Jul 27 2014 13:06:55
    _STATISTICS_WRITING_DATE_UTC : 2016-08-27 17:51:50
    _STATISTICS_TAGS : BPS DURATION NUMBER_OF_FRAMES NUMBER_OF_BYTES
    DURATION : 01:45:54.656000000
    NUMBER_OF_FRAMES : 198583
    NUMBER_OF_BYTES : 508372480
    Video
    ID : 1
    Format : AVC
    Format/Info : Advanced Video Codec
    Format profile : High@L4.1
    Format settings, CABAC : Yes
    Format settings, ReFrames : 9 frames
    Codec ID : V_MPEG4/ISO/AVC
    Duration : 1h 45mn
    Bit rate : 7 989 Kbps
    Width : 1 280 pixels
    Height : 692 pixels
    Display aspect ratio : 1.85:1
    Frame rate mode : Constant
    Frame rate : 23.976 fps
    Color space : YUV
    Chroma subsampling : 4:2:0
    Bit depth : 8 bits
    Scan type : Progressive
    Bits/(Pixel*Frame) : 0.376
    Stream size : 5.91 GiB (77%)
    Writing library : x264 core 148 r2705.16 d50a22e VietHD_Custom_64
    Encoding settings : cabac=1 / ref=9 / deblock=1:-3:-3 / analyse=0x3:0x133 / me=umh / subme=10 / psy=1 / fade_compensate=0.00 / psy_rd=1.09:0.00 / mixed_ref=1 / me_range=24 / chroma_me=1 / trellis=2 / 8x8dct=1 / cqm=0 / deadzone=21,11 / fast_pskip=0 / chroma_qp_offset=-2 / threads=12 / lookahead_threads=2 / sliced_threads=0 / nr=0 / decimate=0 / interlaced=0 / bluray_compat=0 / constrained_intra=0 / fgo=0 / bframes=8 / b_pyramid=2 / b_adapt=2 / b_bias=0 / direct=3 / weightb=1 / open_gop=0 / weightp=2 / keyint=250 / keyint_min=23 / scenecut=40 / intra_refresh=0 / rc_lookahead=60 / rc=crf / mbtree=0 / crf=15.8000 / qcomp=0.65 / qpmin=0:0:0 / qpmax=69:69:69 / qpstep=4 / vbv_maxrate=62500 / vbv_bufsize=78125 / crf_max=0.0 / nal_hrd=none / filler=0 / ip_ratio=1.30 / pb_ratio=1.20 / aq=3:0.70 / aq-sensitivity=10.00 / aq-factor=1.00:1.00:1.00 / aq2=0 / aq3=0 / zones=0,930,crf=14/1754,3505,crf=14.9/7604,7619,crf=14.8/18479,23842,crf=14.9/27926,30663,crf=14.9/35046,39264,crf=14.9/42372,46071,crf=14.9/46072,51878,crf=14.9/62370,69128,crf=14.9/75270,81782,crf=14.9/92681,96648,crf=14.9/97165,109717,crf=14.9/110801,134368,crf=14.9/134505,134546,crf=14.9/146749,152359,crf=25
    Language : English
    Default : Yes
    Forced : No
    Matrix coefficients : BT.709
    _STATISTICS_WRITING_APP : mkvmerge v7.1.0 ('Good Love') 64bit built on Jul 27 2014 13:06:55
    _STATISTICS_WRITING_DATE_UTC : 2016-08-27 17:51:50
    _STATISTICS_TAGS : BPS DURATION NUMBER_OF_FRAMES NUMBER_OF_BYTES
    DURATION : 01:45:54.640000000
    NUMBER_OF_FRAMES : 152359
    NUMBER_OF_BYTES : 6506537293
    Audio #1
    ID : 2
    Format : AC-3
    Format/Info : Audio Coding 3
    Mode extension : CM (complete main)
    Format settings, Endianness : Big
    Codec ID : A_AC3
    Duration : 1h 45mn
    Bit rate mode : Constant
    Bit rate : 640 Kbps
    Channel(s) : 6 channels
    Channel positions : Front: L C R, Side: L R, LFE
    Sampling rate : 48.0 KHz
    Bit depth : 16 bits
    Compression mode : Lossy
    Stream size : 485 MiB (6%)
    Language : Russian
    Default : Yes
    Forced : No
    Audio #2
    ID : 3
    Format : DTS
    Format/Info : Digital Theater Systems
    Mode : 16
    Format settings, Endianness : Big
    Codec ID : A_DTS
    Duration : 1h 45mn
    Bit rate mode : Constant
    Bit rate : 1 509 Kbps
    Channel(s) : 6 channels
    Channel positions : Front: L C R, Side: L R, LFE
    Sampling rate : 48.0 KHz
    Bit depth : 24 bits
    Compression mode : Lossy
    Stream size : 1.12 GiB (15%)
    Language : English
    Default : No
    Forced : No
    Text #1
    ID : 4
    Format : UTF-8
    Codec ID : S_TEXT/UTF8
    Codec ID/Info : UTF-8 Plain Text
    Title : Forced
    Language : Russian
    Default : Yes
    Forced : No
    Text #2
    ID : 5
    Format : UTF-8
    Codec ID : S_TEXT/UTF8
    Codec ID/Info : UTF-8 Plain Text
    Language : Russian
    Default : No
    Forced : No
    Text #3
    ID : 6
    Format : UTF-8
    Codec ID : S_TEXT/UTF8
    Codec ID/Info : UTF-8 Plain Text
    Language : English
    Default : No
    Forced : No
    Text #4
    ID : 7
    Format : UTF-8
    Codec ID : S_TEXT/UTF8
    Codec ID/Info : UTF-8 Plain Text
    Title : SDH
    Language : English
    Default : No
    Forced : No
    Text #5
    ID : 8
    Format : UTF-8
    Codec ID : S_TEXT/UTF8
    Codec ID/Info : UTF-8 Plain Text
    Title : Commentary
    Language : English
    Default : No
    Forced : No
    Menu
    00:00:00.000 : en:00:00:00.000
    00:00:48.215 : en:00:00:48.215
    00:05:15.315 : en:00:05:15.315
    00:09:02.459 : en:00:09:02.459
    00:12:42.178 : en:00:12:42.178
    00:16:34.452 : en:00:16:34.452
    00:21:20.029 : en:00:21:20.029
    00:27:15.133 : en:00:27:15.133
    00:35:04.144 : en:00:35:04.144
    00:43:21.724 : en:00:43:21.724
    00:48:05.132 : en:00:48:05.132
    00:53:29.248 : en:00:53:29.248
    00:58:03.271 : en:00:58:03.271
    01:05:46.442 : en:01:05:46.442
    01:10:35.523 : en:01:10:35.523
    01:17:01.325 : en:01:17:01.325
    01:20:48.927 : en:01:20:48.927
    01:24:46.540 : en:01:24:46.540
    01:30:32.969 : en:01:30:32.969
    01:35:53.206 : en:01:35:53.206

    Скриншоты

    Замена Русской дорожки!
    Скачать .torrent

    Скачать торрент-файл бесплатно и на максимальной скорости!

    Как скачивать? · Что такое торрент? · Рейтинг и ограничения

    !ВНИМАНИЕ!
    Сайт не распространяет и не хранит электронные версии произведений, а занимается лишь лишь предоставлением доступа к создаваемому пользователями каталогу ссылок на торрент-файлы, которые содержат только списки хеш-сумм, убедительная просьба с жалобами обращаться напрямую к пользователю. Файлы для обмена на трекере предоставлены пользователями сайта, и администрация не несёт ответственности за их содержание. Просьба не заливать файлы, защищенные авторскими правами, а также файлы нелегального содержания!


    _________________
    [Профиль] [ЛС]
    Показать сообщения:    
    Ответить на тему

    Текущее время: Сегодня, в 11:09

    Часовой пояс: GMT + 2



    Вы не можете начинать темы
    Вы не можете отвечать на сообщения
    Вы не можете редактировать свои сообщения
    Вы не можете удалять свои сообщения
    Вы не можете голосовать в опросах
    Вы не можете прикреплять файлы к сообщениям
    Вы не можете скачивать файлы