BitTorrentTracker PerecTracker.org
BitTorrentTracker PerecTracker.org
    
Регистрация  ·  Вход
 
 · 
Забыли пароль?

  • Лапочка 3 / Honey 3: Dare to Dance (Билле Вудрафф / Bille Woodruff) [2016, США, драма, семейный, музыка, HDRip] Dub [CEE]

    Ответить на тему
     
    Автор Сообщение

    rechyn

    Создавать темы 27-Авг-2016 15:07

           

    [Цитировать]

    Лапочка 3 / Honey 3: Dare to Dance
    Страна: США
    Жанр: драма, семейный, музыка
    Год выпуска: 2016
    Продолжительность: 01:36:16
    Перевод: Профессиональный (дублированный) [CEE]
    Cубтитры: нет
    Оригинальная аудиодорожка: нет-Режиссер: Билле Вудрафф / Bille Woodruff-В ролях: Кэсси, Кенни Вормолд, Бобби Локвуд, Дена Каплан, Sibongile Mlambo, Сивуйеле Нгеси, Samantha Willoughby, Питер Батлер, Эдриан Голли, Клэйтон Эвертсон-Описание: В учебное время в колледже Кейптауна, Мили Мартин решает развеяться, чтобы отвлечься от строгой школьной политики. В поисках того, как использовать свой талант танцовщицы, при этом вдохновив окружающих, Мили арендует закрывшийся театр, чтобы показать "Ромео и Джульетту" в хип-хоп стиле. Но так же, как это было между Капулетти и Монтекками, конфликты между актерами угрожают всей постановке...-Качество видео: HDRip
    Формат видео: AVI
    Видео: 688x384 (1.79:1), 23.976 fps, XviD build 73 ~947 kbps avg, 0.15 bit/pixel
    Аудио: 48 kHz, MPEG Layer 3, 2 ch, ~128.00 kbps avg--

    MediaInfo

    Format                      : AVI
    Format/Info                 : Audio Video Interleave
    File size                   : 747 MiB
    Duration                    : 1 h 36 min
    Overall bit rate            : 1 085 kb/s
    Writing application         : VirtualDubMod 1.5.10.3 | www.virtualdub-fr.org || (build 2550/release)
    Writing library             : VirtualDubMod build 2550/release
    Video
    ID                          : 0
    Format                      : MPEG-4 Visual
    Format profile              : Advanced Simple@L5
    Format settings, BVOP       : 1
    Format settings, QPel       : No
    Format settings, GMC        : No warppoints
    Format settings, Matrix     : Default (MPEG)
    Codec ID                    : XVID
    Codec ID/Hint               : XviD
    Duration                    : 1 h 36 min
    Bit rate                    : 948 kb/s
    Width                       : 688 pixels
    Height                      : 384 pixels
    Display aspect ratio        : 16:9
    Frame rate                  : 23.976 (23976/1000) FPS
    Color space                 : YUV
    Chroma subsampling          : 4:2:0
    Bit depth                   : 8 bits
    Scan type                   : Progressive
    Compression mode            : Lossy
    Bits/(Pixel*Frame)          : 0.150
    Stream size                 : 653 MiB (87%)
    Writing library             : XviD 73
    Audio
    ID                          : 1
    Format                      : MPEG Audio
    Format version              : Version 1
    Format profile              : Layer 3
    Codec ID                    : 55
    Codec ID/Hint               : MP3
    Duration                    : 1 h 36 min
    Bit rate mode               : Constant
    Bit rate                    : 128 kb/s
    Channel(s)                  : 2 channels
    Sampling rate               : 48.0 kHz
    Compression mode            : Lossy
    Stream size                 : 88.1 MiB (12%)
    Alignment                   : Aligned on interleaves
    Interleave, duration        : 42  ms (1.00 video frame)
    Interleave, preload duratio : 504  ms
    Writing library             : LAME3.99r
    Encoding settings           : -m s -V 4 -q 2 -lowpass 17 -b 128

    Скриншоты

    Скачать .torrent

    Скачать торрент-файл бесплатно и на максимальной скорости!

    Как скачивать? · Что такое торрент? · Рейтинг и ограничения

    !ВНИМАНИЕ!
    Сайт не распространяет и не хранит электронные версии произведений, а занимается лишь лишь предоставлением доступа к создаваемому пользователями каталогу ссылок на торрент-файлы, которые содержат только списки хеш-сумм, убедительная просьба с жалобами обращаться напрямую к пользователю. Файлы для обмена на трекере предоставлены пользователями сайта, и администрация не несёт ответственности за их содержание. Просьба не заливать файлы, защищенные авторскими правами, а также файлы нелегального содержания!


    _________________
    [Профиль] [ЛС]
    Показать сообщения:    
    Ответить на тему

    Текущее время: Сегодня, в 00:04

    Часовой пояс: GMT + 2



    Вы не можете начинать темы
    Вы не можете отвечать на сообщения
    Вы не можете редактировать свои сообщения
    Вы не можете удалять свои сообщения
    Вы не можете голосовать в опросах
    Вы не можете прикреплять файлы к сообщениям
    Вы не можете скачивать файлы